<?xml version="1.0" standalone="no"?>
<!DOCTYPE svg PUBLIC "-//W3C//DTD SVG 1.1//EN" "http://www.w3.org/Graphics/SVG/1.1/DTD/svg11.dtd" >
<svg xmlns="http://www.w3.org/2000/svg">
<metadata>
This is a custom SVG font generated by IcoMoon.
<iconset grid="16"></iconset>
</metadata>
<defs>
<font id="icomoon" horiz-adv-x="512" >
<font-face units-per-em="512" ascent="480" descent="-32" />
<missing-glyph horiz-adv-x="512" />
<glyph unicode="&#xe000;" d="M 496.131,44.302L 374.855,147.449c-12.537,11.283-25.945,16.463-36.776,15.963C 366.707,196.946, 384.00,240.451, 384.00,288.00 C 384.00,394.039, 298.039,480.00, 192.00,480.00C 85.962,480.00,0.00,394.039,0.00,288.00c0.00-106.039, 85.961-192.00, 192.00-192.00c 47.549,0.00, 91.054,17.293, 124.588,45.922 c-0.50-10.831, 4.68-24.239, 15.963-36.776l 103.147-121.276c 17.661-19.623, 46.511-21.277, 64.11-3.678S 515.754,26.641, 496.131,44.302 z M 192.00,160.00c-70.692,0.00-128.00,57.308-128.00,128.00S 121.308,416.00, 192.00,416.00s 128.00-57.308, 128.00-128.00S 262.693,160.00, 192.00,160.00zM 96.00,320.00L 288.00,320.00L 288.00,256.00L 96.00,256.00z"  />
<glyph unicode="&#xe001;" d="M 96.00,320.00L 256.00,320.00L 256.00,288.00L 96.00,288.00zM 318.771,201.076C 339.674,230.021, 352.00,265.568, 352.00,304.00C 352.00,401.202, 273.202,480.00, 176.00,480.00S0.00,401.202,0.00,304.00s 78.798-176.00, 176.00-176.00 c 38.432,0.00, 73.979,12.326, 102.924,33.229L 448.00-32.00l 64.00,64.00L 318.771,201.076z M 176.00,176.00c-70.692,0.00-128.00,57.308-128.00,128.00S 105.308,432.00, 176.00,432.00 s 128.00-57.308, 128.00-128.00S 246.693,176.00, 176.00,176.00z"  />
<glyph unicode="&#xe002;" d="M 496.131,44.302L 374.855,147.449c-12.537,11.283-25.945,16.463-36.776,15.963C 366.707,196.946, 384.00,240.451, 384.00,288.00 C 384.00,394.039, 298.039,480.00, 192.00,480.00C 85.962,480.00,0.00,394.039,0.00,288.00c0.00-106.039, 85.961-192.00, 192.00-192.00c 47.549,0.00, 91.054,17.293, 124.588,45.922 c-0.50-10.831, 4.68-24.239, 15.963-36.776l 103.147-121.276c 17.661-19.623, 46.511-21.277, 64.11-3.678S 515.754,26.641, 496.131,44.302 z M 192.00,160.00c-70.692,0.00-128.00,57.308-128.00,128.00S 121.308,416.00, 192.00,416.00s 128.00-57.308, 128.00-128.00S 262.693,160.00, 192.00,160.00zM 224.00,384.00L 160.00,384.00L 160.00,320.00L 96.00,320.00L 96.00,256.00L 160.00,256.00L 160.00,192.00L 224.00,192.00L 224.00,256.00L 288.00,256.00L 288.00,320.00L 224.00,320.00 z"  />
<glyph unicode="&#xe003;" d="M 192.00,384.00L 160.00,384.00L 160.00,320.00L 96.00,320.00L 96.00,288.00L 160.00,288.00L 160.00,224.00L 192.00,224.00L 192.00,288.00L 256.00,288.00L 256.00,320.00L 192.00,320.00 zM 318.771,201.076C 339.674,230.021, 352.00,265.568, 352.00,304.00C 352.00,401.202, 273.202,480.00, 176.00,480.00S0.00,401.202,0.00,304.00s 78.798-176.00, 176.00-176.00 c 38.432,0.00, 73.979,12.326, 102.924,33.229L 448.00-32.00l 64.00,64.00L 318.771,201.076z M 176.00,176.00c-70.692,0.00-128.00,57.308-128.00,128.00S 105.308,432.00, 176.00,432.00 s 128.00-57.308, 128.00-128.00S 246.693,176.00, 176.00,176.00z"  />
<glyph unicode="&#xe004;" d="M 416.00,416.00L 96.00,416.00 c-52.80,0.00-96.00-43.20-96.00-96.00l0.00-192.00 c0.00-52.80, 43.20-96.00, 96.00-96.00l 320.00,0.00 c 52.80,0.00, 96.00,43.20, 96.00,96.00L 512.00,320.00 C 512.00,372.80, 468.80,416.00, 416.00,416.00z M 480.00,128.00c0.00-16.989-6.687-33.031-18.827-45.173C 449.031,70.687, 432.99,64.00, 416.00,64.00L 96.00,64.00 c-16.989,0.00-33.031,6.687-45.172,18.827 C 38.687,94.969, 32.00,111.011, 32.00,128.00L 32.00,320.00 c0.00,16.989, 6.687,33.031, 18.828,45.172S 79.011,384.00, 96.00,384.00l 320.00,0.00 c 16.989,0.00, 33.031-6.687, 45.173-18.828C 473.314,353.031, 480.00,336.989, 480.00,320.00L 480.00,128.00 zM 192.00,96.00L 352.00,224.00L 192.00,352.00 z"  />
<glyph unicode="&#xe005;" d="M 416.00,416.00L 96.00,416.00 c-52.80,0.00-96.00-43.20-96.00-96.00l0.00-192.00 c0.00-52.80, 43.20-96.00, 96.00-96.00l 320.00,0.00 c 52.80,0.00, 96.00,43.20, 96.00,96.00L 512.00,320.00 C 512.00,372.80, 468.80,416.00, 416.00,416.00z M 192.00,96.00L 192.00,352.00 l 160.00-128.00L 192.00,96.00z"  />
<glyph unicode="&#xe006;" d="M 224.00,352.00A32.00,32.00 2700.00 1 1 288.00,352A32.00,32.00 2700.00 1 1 224.00,352zM 256.00,480.00C 114.615,480.00,0.00,365.385,0.00,224.00s 114.615-256.00, 256.00-256.00s 256.00,114.615, 256.00,256.00S 397.385,480.00, 256.00,480.00z M 256.00,64.00 c-17.674,0.00-32.00,14.326-32.00,32.00s 14.326,32.00, 32.00,32.00c 17.673,0.00, 32.00-14.326, 32.00-32.00S 273.673,64.00, 256.00,64.00z M 256.00,224.00c-57.438,0.00-104.00-46.562-104.00-104.00 s 46.562-104.00, 104.00-104.00c-114.875,0.00-208.00,93.125-208.00,208.00S 141.125,432.00, 256.00,432.00c 57.438,0.00, 104.00-46.562, 104.00-104.00S 313.438,224.00, 256.00,224.00z"  />
<glyph unicode="&#xe007;" d="M 304.438,153.266c-8.641-8.713-1.334-24.564-1.334-24.564l 65.045-108.609c0.00,0.00, 10.68-14.32, 19.932-14.32 c 9.295,0.00, 18.477,7.635, 18.477,7.635l 51.422,73.504c0.00,0.00, 5.18,9.273, 5.299,17.396c 0.186,11.553-17.227,14.717-17.227,14.717 l-121.744,39.096C 324.307,158.119, 312.379,161.285, 304.438,153.266zM 298.266,208.008c 6.23-10.564, 23.414-7.486, 23.414-7.486l 121.469,35.503c0.00,0.00, 16.553,6.733, 18.916,15.709 c 2.32,8.977-2.73,19.811-2.73,19.811l-58.049,68.376c0.00,0.00-5.031,8.646-15.469,9.516c-11.508,0.979-18.59-12.949-18.59-12.949 l-68.635-108.005C 298.592,228.481, 292.525,217.725, 298.266,208.008zM 240.877,250.116c 14.304,3.522, 16.574,24.302, 16.574,24.302l-0.972,172.935c0.00,0.00-2.157,21.333-11.743,27.116 c-15.035,9.121-19.491,4.359-23.798,3.722L 120.09,440.719c0.00,0.00-9.877-3.268-15.021-11.509c-7.345-11.676, 7.464-28.772, 7.464-28.772 L 217.355,257.56C 217.355,257.56, 227.70,246.862, 240.877,250.116zM 215.972,180.131c 0.361,13.338-16.015,21.35-16.015,21.35L 91.559,256.243c0.00,0.00-16.063,6.623-23.861,2.008 c-5.975-3.53-11.268-9.92-11.786-15.567l-7.06-86.906c0.00,0.00-1.058-15.057, 2.845-21.91c 5.527-9.721, 23.714-2.951, 23.714-2.951 l 126.548,27.971C 206.875,162.193, 215.496,162.49, 215.972,180.131zM 247.44,133.229c-10.863,5.578-23.862-5.975-23.862-5.975l-84.734-93.283c0.00,0.00-10.572-14.264-7.884-23.025 c 2.533-8.209, 6.727-12.289, 12.659-15.164l 85.096-26.863c0.00,0.00, 10.317-2.143, 18.129,0.121c 11.09,3.215, 9.047,20.576, 9.047,20.576 l 1.924,126.301C 257.814,115.916, 257.381,128.084, 247.44,133.229z"  />
<glyph unicode="&#xe008;" d="M 424.00,160.00l-7.429,208.01C 416.257,376.805, 423.20,384.00, 432.00,384.00l 64.00,0.00 c 8.80,0.00, 14.734-7.088, 13.188-15.751L 472.00,160.00M 480.00,92.00c0.00-15.40-12.60-28.00-28.00-28.00l-8.00,0.00 c-15.40,0.00-28.00,12.60-28.00,28.00l0.00,8.00 c0.00,15.40, 12.60,28.00, 28.00,28.00l 8.00,0.00 c 15.40,0.00, 28.00-12.60, 28.00-28.00L 480.00,92.00 zM 192.00,384.00C 85.961,384.00,0.00,312.366,0.00,224.00c0.00-88.365, 85.961-160.00, 192.00-160.00c 106.039,0.00, 192.00,71.635, 192.00,160.00 C 384.00,312.366, 298.039,384.00, 192.00,384.00z M 320.00,256.00l-37.131,0.00 L 224.00,197.13L 224.00,160.00 l 48.00,0.00 l0.00-32.00 L 144.00,128.00 l0.00,32.00 l 48.00,0.00 l0.00,37.13 L 101.13,288.00L 80.099,288.00 l0.00,32.00 l 95.803,0.00 l0.00-32.00 L 154.87,288.00 L 208.00,234.87l 16.00,16.00L 224.00,288.00 l 96.00,0.00 L 320.00,256.00 z"  />
<glyph unicode="&#xe009;" d="M 256.00,480.00C 114.615,480.00,0.00,365.385,0.00,224.00s 114.615-256.00, 256.00-256.00s 256.00,114.615, 256.00,256.00S 397.385,480.00, 256.00,480.00z M 172.741,159.797l-46.267,0.00 c-2.788,0.00-4.87,1.247-6.049,3.146c-1.219,1.976-1.282,4.533,0.00,7.08l 49.162,86.535c 0.052,0.095, 0.052,0.158,0.00,0.263l-31.284,54.019 c-1.294,2.569-1.483,5.106-0.263,7.079c 1.179,1.909, 3.522,2.885, 6.31,2.885l 46.267,0.00 c 7.10,0.00, 10.579-4.562, 12.884-8.654 c0.00,0.00, 31.62-55.025, 31.809-55.328c-1.873-3.295-49.95-88.11-49.95-88.11C 182.994,164.454, 179.661,159.797, 172.741,159.797z M 391.525,373.931L 289.084,193.259c-0.062-0.097-0.062-0.214,0.00-0.306l 65.229-118.875c 1.295-2.558, 1.326-5.16, 0.096-7.132 c-1.178-1.897-3.354-2.946-6.141-2.946l-46.217,0.00 c-7.088,0.00-10.633,4.699-12.924,8.79c0.00,0.00-65.576,119.996-65.744,120.307 c 3.28,5.791, 102.958,182.113, 102.958,182.113c 2.48,4.448, 5.477,8.79, 12.387,8.79l 46.742,0.00 c 2.789,0.00, 4.977-1.049, 6.152-2.947 C 392.842,379.079, 392.809,376.48, 391.525,373.931z"  />
<glyph unicode="&#xe00a;" d="M 426.671,480.00L 85.343,480.00 C 38.406,480.00,0.00,441.595,0.00,394.655l0.00-341.311 C0.00,6.375, 38.406-32.00, 85.343-32.00l 341.328,0.00 C 473.609-32.00, 512.00,6.375, 512.00,53.345L 512.00,394.655 C 512.00,441.595, 473.609,480.00, 426.671,480.00z M 155.889,146.606l-55.632,0.00 c-3.351,0.00-5.854,1.504-7.271,3.792c-1.467,2.379-1.542,5.464,0.00,8.534l 59.11,104.313c 0.063,0.114, 0.063,0.19,0.00,0.316l-37.615,65.116 c-1.556,3.098-1.783,6.157-0.316,8.534c 1.417,2.301, 4.235,3.477, 7.586,3.477l 55.632,0.00 c 8.535,0.00, 12.72-5.499, 15.489-10.431 c0.00,0.00, 38.02-66.33, 38.249-66.696c-2.252-3.97-60.059-106.21-60.059-106.21C 168.218,152.22, 164.21,146.606, 155.889,146.606z M 418.956,404.731L 295.78,186.941c-0.075-0.115-0.075-0.255,0.00-0.367l 78.431-143.295c 1.556-3.084, 1.593-6.221, 0.113-8.597 c-1.415-2.288-4.033-3.552-7.383-3.552l-55.57,0.00 c-8.522,0.00-12.783,5.663-15.54,10.596c0.00,0.00-78.848,144.646-79.05,145.023 c 3.944,6.98, 123.797,219.523, 123.797,219.523c 2.984,5.362, 6.587,10.596, 14.894,10.596l 56.203,0.00 c 3.351,0.00, 5.981-1.265, 7.396-3.553 C 420.537,410.939, 420.499,407.804, 418.956,404.731z"  />
<glyph unicode="&#xe00b;" d="M 480.895,114.139L 294.502,266.252c-6.183,5.045-12.183,9.551-17.906,13.495C 283.937,297.029, 288.00,316.04, 288.00,336.00 C 288.00,415.529, 223.529,480.00, 144.00,480.00c-14.547,0.00-28.586-2.166-41.823-6.177L 192.00,384.00l0.00-96.00 L 96.00,288.00 L 6.177,377.823C 2.166,364.586,0.00,350.547,0.00,336.00 c0.00-79.529, 64.471-144.00, 144.00-144.00c 19.96,0.00, 38.97,4.063, 56.252,11.404c 3.944-5.724, 8.449-11.724, 13.494-17.906L 365.86-0.896 c 31.645-38.776, 86.336-41.702, 121.536-6.502S 519.671,82.494, 480.895,114.139z M 432.00,0.00l-48.00,48.00l 48.00,48.00l 48.00-48.00L 432.00,0.00z"  />
<glyph unicode="&#xe00c;" d="M 501.467,71.062l-230.276,197.38C 281.915,288.591, 288.00,311.583, 288.00,336.00C 288.00,415.529, 223.529,480.00, 144.00,480.00 c-14.547,0.00-28.586-2.166-41.823-6.177l 83.195-83.195c 12.445-12.445, 12.445-32.81,0.00-45.255l-50.745-50.745 c-12.445-12.445-32.81-12.445-45.255,0.00L 6.177,377.823C 2.166,364.586,0.00,350.547,0.00,336.00c0.00-79.529, 64.471-144.00, 144.00-144.00 c 24.417,0.00, 47.409,6.085, 67.558,16.81l 197.38-230.276c 11.454-13.362, 31.008-14.113, 43.452-1.669l 50.746,50.746 C 515.58,40.055, 514.829,59.608, 501.467,71.062z"  />
<glyph unicode="&#xe00d;" d="M 259.371,207.648 L 318.386,50.177 C 318.775,49.252 319.252,48.402 319.761,47.60 C 299.805,40.759 278.359,37.00 256.002,37.00 C 237.155,37.00 218.966,39.69 201.758,44.619 L 259.371,207.648 ZM 448.00,224.003 C 448.00,155.018 409.612,94.788 352.53,62.374 L 411.173,227.51 C 422.129,254.187 425.775,275.52 425.775,294.485 C 425.775,301.371 425.306,307.759 424.481,313.714 C 439.47,287.083 448.00,256.518 448.00,224.003 ZM 64.00,224.004 C 64.00,251.116 69.972,276.853 80.626,300.107 L 172.215,55.715 C 108.161,86.02 64.00,149.991 64.00,224.004 ZM 95.582,326.716 C 129.911,377.477 188.924,411.00 256.004,411.00 C 305.988,411.00 351.50,392.387 385.658,361.902 C 384.83,361.951 384.023,362.053 383.17,362.053 C 364.31,362.053 350.927,346.052 350.927,328.865 C 350.927,313.454 360.058,300.417 369.787,285.007 C 377.087,272.554 385.614,256.553 385.614,233.436 C 385.614,217.435 379.296,198.861 371.006,172.986 L 351.85,110.67 L 282.46,311.679 C 294.018,312.268 304.434,313.454 304.434,313.454 C 314.781,314.648 313.563,329.456 303.211,328.865 C 303.211,328.865 272.109,326.489 252.036,326.489 C 233.169,326.489 201.469,328.865 201.469,328.865 C 191.114,329.455 189.899,314.05 200.25,313.454 C 200.25,313.454 210.045,312.271 220.389,311.679 L 250.30,231.854 L 208.278,109.126 L 138.361,311.679 C 149.932,312.27 160.337,313.454 160.337,313.454 C 170.674,314.648 169.453,329.456 159.108,328.865 C 159.108,328.865 128.015,326.489 107.938,326.489 C 104.335,326.489 100.087,326.575 95.582,326.716 ZM 426.00,480.00L 86.00,480.00 C 38.70,480.00,0.00,441.30,0.00,394.00l0.00-340.00 c0.00-47.30, 38.70-86.00, 86.00-86.00l 340.00,0.00 c 47.30,0.00, 86.00,38.70, 86.00,86.00L 512.00,394.00 C 512.00,441.30, 473.30,480.00, 426.00,480.00z M 480.00,224.00 c0.00-123.712-100.288-224.00-224.00-224.00S 32.00,100.288, 32.00,224.00S 132.288,448.00, 256.00,448.00S 480.00,347.712, 480.00,224.00z"  />
<glyph unicode="&#xe00e;" d="M 64.00,224.004c0.00-74.013, 44.161-137.984, 108.215-168.289L 80.626,300.107C 69.972,276.853, 64.00,251.116, 64.00,224.004zM 385.614,233.436c0.00,23.117-8.527,39.118-15.827,51.571c-9.729,15.41-18.86,28.447-18.86,43.858 c0.00,17.187, 13.383,33.188, 32.243,33.188c 0.852,0.00, 1.66-0.102, 2.488-0.151C 351.50,392.387, 305.988,411.00, 256.004,411.00 c-67.08,0.00-126.093-33.523-160.422-84.284c 4.505-0.141, 8.753-0.227, 12.356-0.227c 20.077,0.00, 51.17,2.376, 51.17,2.376 c 10.345,0.591, 11.566-14.217, 1.229-15.411c0.00,0.00-10.405-1.184-21.976-1.775l 69.917-202.553l 42.022,122.728l-29.911,79.825 c-10.344,0.592-20.139,1.775-20.139,1.775c-10.351,0.596-9.136,16.001, 1.219,15.411c0.00,0.00, 31.70-2.376, 50.567-2.376 c 20.073,0.00, 51.175,2.376, 51.175,2.376c 10.351,0.591, 11.57-14.217, 1.223-15.411c0.00,0.00-10.417-1.186-21.974-1.775L 351.85,110.67 l 19.156,62.316C 379.296,198.861, 385.614,217.436, 385.614,233.436zM 259.371,207.648l-57.613-163.029c 17.208-4.929, 35.397-7.619, 54.244-7.619c 22.358,0.00, 43.802,3.759, 63.759,10.60 c-0.509,0.801-0.987,1.652-1.375,2.577L 259.371,207.648zM 424.481,313.714c 0.826-5.955, 1.294-12.343, 1.294-19.229c0.00-18.965-3.646-40.298-14.601-66.975l-58.643-165.136 C 409.612,94.788, 448.00,155.018, 448.00,224.003C 448.00,256.518, 439.47,287.083, 424.481,313.714zM 256.00,480.00C 114.615,480.00,0.00,365.385,0.00,224.00s 114.615-256.00, 256.00-256.00s 256.00,114.615, 256.00,256.00S 397.385,480.00, 256.00,480.00z M 256.00,0.00 C 132.288,0.00, 32.00,100.288, 32.00,224.00S 132.288,448.00, 256.00,448.00s 224.00-100.288, 224.00-224.00S 379.712,0.00, 256.00,0.00z"  />
<glyph unicode="&#xe00f;" d="M 256.00,480.00C 114.615,480.00,0.00,365.385,0.00,224.00s 114.615-256.00, 256.00-256.00s 256.00,114.615, 256.00,256.00S 397.385,480.00, 256.00,480.00z M 352.00,352.00 c 17.673,0.00, 32.00-14.327, 32.00-32.00s-14.327-32.00-32.00-32.00s-32.00,14.327-32.00,32.00S 334.327,352.00, 352.00,352.00z M 128.00,320.00c0.00,17.673, 14.327,32.00, 32.00,32.00 s 32.00-14.327, 32.00-32.00s-14.327-32.00-32.00-32.00S 128.00,302.327, 128.00,320.00z M 165.622,76.807l-11.244,38.387l 218.50,64.00l 11.244-38.387L 165.622,76.807z"  />
<glyph unicode="&#xe010;" d="M 256.00-32.00c 141.385,0.00, 256.00,114.615, 256.00,256.00S 397.385,480.00, 256.00,480.00S0.00,365.385,0.00,224.00S 114.615-32.00, 256.00-32.00z M 256.00,432.00 c 114.875,0.00, 208.00-93.125, 208.00-208.00s-93.125-208.00-208.00-208.00S 48.00,109.125, 48.00,224.00S 141.125,432.00, 256.00,432.00zM 372.87,179.19L 384.114,140.802L 165.61,76.801L 154.366,115.189zM 128.00,320.00 C 128.00,337.673 142.327,352.00 160.00,352.00 C 177.673,352.00 192.00,337.673 192.00,320.00 C 192.00,302.327 177.673,288.00 160.00,288.00 C 142.327,288.00 128.00,302.327 128.00,320.00 Z M 320.00,320.00 C 320.00,337.673 334.327,352.00 352.00,352.00 C 369.673,352.00 384.00,337.673 384.00,320.00 C 384.00,302.327 369.673,288.00 352.00,288.00 C 334.327,288.00 320.00,302.327 320.00,320.00 Z"  />
<glyph unicode="&#xe011;" d="M 405.369,258.501l-62.063,62.063c-0.07,0.07-0.138-0.145-0.207-0.075C 320.554,343.034, 311.237,352.00, 288.679,352.00l-64.00,0.00 c-22.557,0.00-31.875-8.966-54.42-31.511l-0.704-0.066l-62.555-61.925l0.00,0.003 c-13.00-13.575-10.816-33.939, 0.497-45.253l 93.188,92.66 L 126.365,160.00l 65.636,0.00 l0.00-159.436 c0.00-13.257, 10.745-24.00, 24.00-24.00c 13.254,0.00, 24.00,10.743, 24.00,24.00L 240.001,160.00 l 32.00,0.00 l0.00-159.436 c0.00-13.257, 10.745-24.00, 24.00-24.00 s 24.00,10.743, 24.00,24.00L 320.001,160.00 l 64.68,0.00 l-73.372,147.027l 94.059-93.917l 0.005,0.076C 416.68,224.499, 418.938,244.929, 405.369,258.501zM 208.411,416.00A48.00,48.00 12780.00 1 1 304.411,416A48.00,48.00 12780.00 1 1 208.411,416z"  />
<glyph unicode="&#xe012;" d="M 256.00,480.00C 114.615,480.00,0.00,365.386,0.00,224.00c0.00-141.385, 114.614-256.00, 256.00-256.00c 141.385,0.00, 256.00,114.615, 256.00,256.00 C 512.00,365.386, 397.385,480.00, 256.00,480.00z M 352.00,352.00c 17.673,0.00, 32.00-21.49, 32.00-48.00s-14.327-48.00-32.00-48.00s-32.00,21.49-32.00,48.00S 334.327,352.00, 352.00,352.00z M 176.00,323.969c 29.823,0.00, 51.00-11.166, 51.00-28.641c0.00-3.699, 1.906-21.497-0.085-24.797c-7.414,12.288-27.405,21.094-50.915,21.094 s-43.501-8.806-50.915-21.094c-1.991,3.30-0.085,21.098-0.085,24.797C 125.00,312.803, 146.177,323.969, 176.00,323.969z M 250.172,64.00 c-59.621,0.00-111.929,32.14-141.446,80.476c 35.205-27.53, 97.267-32.905, 162.644-19.989c 70.124,13.853, 124.555,45.771, 144.227,88.297 C 404.77,128.804, 334.838,64.00, 250.172,64.00z"  />
<glyph unicode="&#xe013;" d="M 256.00-32.00c 141.385,0.00, 256.00,114.615, 256.00,256.00S 397.385,480.00, 256.00,480.00S0.00,365.385,0.00,224.00S 114.615-32.00, 256.00-32.00z M 256.00,432.00 c 114.875,0.00, 208.00-93.125, 208.00-208.00s-93.125-208.00-208.00-208.00S 48.00,109.125, 48.00,224.00S 141.125,432.00, 256.00,432.00zM 271.37,124.486 C 341.494,138.339 395.925,170.257 415.597,212.783 C 404.77,128.805 334.838,64.00 250.172,64.00 C 190.551,64.00 138.243,96.141 108.726,144.474 C 143.931,116.945 205.993,111.57 271.37,124.486 ZM 320.00,304.00A32.00,48.00 2700.00 1 1 384.00,304A32.00,48.00 2700.00 1 1 320.00,304zM 176.00,294.25 C 155.102,294.25 137.333,286.422 130.742,275.50 C 128.972,278.433 128.00,291.587 128.00,294.875 C 128.00,310.408 149.49,323.00 176.00,323.00 C 202.51,323.00 224.00,310.408 224.00,294.875 C 224.00,291.587 223.028,278.433 221.258,275.50 C 214.667,286.422 196.898,294.25 176.00,294.25 Z"  />
<glyph unicode="&#xe014;" d="M 336.00,320.00c-26.51,0.00-48.00,21.49-48.00,48.00s 21.49,48.00, 48.00,48.00s 48.00-21.49, 48.00-48.00c0.00-2.305-0.173-4.569-0.486-6.788l 31.675-4.525 C 415.713,360.385, 416.00,364.158, 416.00,368.00c0.00,44.183-35.817,80.00-80.00,80.00s-80.00-35.817-80.00-80.00s 35.817-80.00, 80.00-80.00l 176.00,0.00 l0.00,32.00 L 336.00,320.00 zM 64.00,96.00c0.00-53.019, 42.981-96.00, 96.00-96.00s 96.00,42.981, 96.00,96.00c0.00,8.032-0.992,15.831-2.851,23.287l-31.056-7.764 C 223.333,106.553, 224.00,101.354, 224.00,96.00c0.00-35.347-28.654-64.00-64.00-64.00s-64.00,28.653-64.00,64.00s 28.654,64.00, 64.00,64.00l 352.00,0.00 l0.00,32.00 L 160.00,192.00 C 106.981,192.00, 64.00,149.021, 64.00,96.00zM 32.00,336.00c0.00,44.183, 35.817,80.00, 80.00,80.00s 80.00-35.817, 80.00-80.00c0.00-11.811-2.58-23.012-7.174-33.103l 29.157-13.253 C 220.415,303.771, 224.00,319.466, 224.00,336.00c0.00,61.856-50.144,112.00-112.00,112.00S0.00,397.856,0.00,336.00c0.00-61.855, 50.144-112.00, 112.00-112.00l 400.00,0.00 l0.00,32.00 L 112.00,256.00 C 67.818,256.00, 32.00,291.817, 32.00,336.00z"  />
<glyph unicode="&#xe015;" d="M 0.175,224.00 L 0.00,380.037 L 192.00,406.109 L 192.00,224.00 ZM 224.00,410.759 L 479.936,448.00 L 479.936,224.00 L 224.00,224.00 ZM 479.999,192.00 L 479.936-32.00 L 224.00,4.008 L 224.00,192.00 ZM 192.00,8.082 L 0.156,34.379 L 0.146,192.00 L 192.00,192.00 Z"  />
<glyph unicode="&#xe016;" d="M 206.115,224.043c-23.854,12.259-47.043,18.479-68.94,18.479c-2.978,0.00-5.976-0.09-8.974-0.354 c-27.94-2.312-53.461-9.684-69.875-15.414c-4.354-1.599-8.817-3.288-13.415-5.153L0.00,65.904 c 30.851,11.416, 58.146,16.969, 83.135,16.969c 40.423,0.00, 69.764-15.104, 93.996-30.652c 11.481,38.959, 39.022,133.045, 47.241,161.162 C 218.397,217.025, 212.334,220.668, 206.115,224.043zM 264.174,184.465l-45.223-157.074c 13.416-7.686, 58.549-32.025, 93.106-32.025c 27.896,0.00, 59.126,7.148, 95.417,21.896 l 43.178,150.988c-29.316-9.461-57.438-14.26-83.732-14.26C 318.945,153.99, 285.363,169.539, 264.174,184.465zM 146.411,295.605c 38.559-0.399, 67.076-15.104, 90.708-30.251l 46.376,158.672c-9.773,5.598-35.403,19.547-53.929,24.30 c-12.193,2.842-25.01,4.308-38.602,4.308c-25.898-0.488-54.194-6.973-86.444-19.90l-44.22-155.298 c 32.404,12.218, 60.322,18.17, 86.043,18.17C 146.366,295.605, 146.411,295.605, 146.411,295.605zM 512.00,380.938c-29.407-11.416-58.104-17.233-85.514-17.233c-45.843,0.00-79.646,15.901-101.547,31.183L 278.964,235.77 c 30.873-19.854, 64.145-29.939, 99.061-29.939c 28.474,0.00, 57.97,6.84, 87.731,20.344l-0.091,1.111l 1.867,0.443L 512.00,380.938z"  />
<glyph unicode="&#xe017;" d="M 445.502,331.969 C 483.66,322.679 512.00,288.273 512.00,247.229 C 512.00,199.111 473.065,160.098 424.996,160.006 L 424.996,160.00 L 96.865,160.00 C 43.367,160.00 0.00,203.393 0.00,256.924 C 0.00,310.452 43.367,353.846 96.867,353.845 C 102.768,353.845 108.541,353.288 114.151,352.276 C 113.709,355.373 113.469,358.535 113.469,361.753 C 113.469,398.676 143.385,428.614 180.29,428.614 C 201.799,428.614 220.923,418.433 233.144,402.634 C 254.938,430.253 288.675,448.00 326.571,448.00 C 391.273,448.00 443.881,396.319 445.502,331.969 ZM 447.984,75.916 C 448.137,73.418 447.141,71.674 444.992,70.672 L 389.57,47.998 L 444.992,25.109 C 447.142,24.256 448.138,22.58 447.984,20.088 C 447.838,17.586 445.999,13.562 442.463,8.001 C 438.929,2.297 436.055-1.198 433.835-2.479 C 431.614-3.765 429.581-3.765 427.741-2.479 L 378.749,30.676 L 385.189-25.371 C 385.653-27.507 384.639-29.146 382.194-30.287 C 379.741-31.429 374.987-32.00 367.931-32.00 C 360.879-32.00 356.124-31.426 353.682-30.287 C 351.223-29.146 350.223-27.507 350.682-25.371 L 357.125,30.676 L 308.359-2.479 C 306.519-3.765 304.445-3.765 302.152-2.479 C 299.851-1.198 296.933,2.297 293.411,8.001 C 289.869,13.562 288.08,17.586 288.002,20.088 C 287.923,22.58 288.958,24.255 291.112,25.109 L 346.537,47.998 L 291.112,70.672 C 288.958,71.67 287.923,73.418 288.002,75.916 C 288.08,78.409 289.869,82.438 293.411,87.999 C 296.936,93.557 299.848,96.974 302.152,98.259 C 304.453,99.541 306.519,99.541 308.359,98.259 L 357.125,65.329 L 350.682,121.154 C 350.223,123.437 351.223,125.143 353.682,126.28 C 356.129,127.429 360.879,128.00 367.931,128.00 C 374.987,128.00 379.741,127.422 382.194,126.28 C 384.639,125.146 385.653,123.437 385.189,121.154 L 378.749,65.329 L 427.741,98.259 C 429.581,99.541 431.617,99.541 433.835,98.259 C 436.055,96.973 438.929,93.483 442.463,87.785 C 446.00,82.369 447.831,78.414 447.984,75.916 ZM 223.984,75.916 C 224.137,73.418 223.141,71.674 220.992,70.672 L 165.57,47.998 L 220.992,25.109 C 223.142,24.256 224.138,22.58 223.984,20.088 C 223.838,17.586 221.999,13.562 218.463,8.001 C 214.929,2.297 212.055-1.198 209.835-2.479 C 207.614-3.765 205.581-3.765 203.741-2.479 L 154.749,30.676 L 161.189-25.371 C 161.653-27.507 160.639-29.146 158.194-30.287 C 155.741-31.429 150.987-32.00 143.931-32.00 C 136.879-32.00 132.124-31.426 129.682-30.287 C 127.223-29.146 126.223-27.507 126.682-25.371 L 133.125,30.676 L 84.359-2.479 C 82.519-3.765 80.445-3.765 78.152-2.479 C 75.851-1.198 72.933,2.297 69.411,8.001 C 65.869,13.562 64.08,17.586 64.002,20.088 C 63.923,22.58 64.958,24.255 67.112,25.109 L 122.537,47.998 L 67.112,70.672 C 64.958,71.67 63.923,73.418 64.002,75.916 C 64.08,78.409 65.869,82.438 69.411,87.999 C 72.936,93.557 75.848,96.974 78.152,98.259 C 80.453,99.541 82.519,99.541 84.359,98.259 L 133.125,65.329 L 126.682,121.154 C 126.223,123.437 127.223,125.143 129.682,126.28 C 132.129,127.429 136.879,128.00 143.931,128.00 C 150.987,128.00 155.741,127.422 158.194,126.28 C 160.639,125.146 161.653,123.437 161.189,121.154 L 154.749,65.329 L 203.741,98.259 C 205.581,99.541 207.617,99.541 209.835,98.259 C 212.055,96.973 214.929,93.483 218.463,87.785 C 222.00,82.369 223.831,78.414 223.984,75.916 Z"  />
<glyph unicode="&#xe018;" d="M 445.502,331.969 C 483.66,322.679 512.00,288.273 512.00,247.229 C 512.00,199.111 473.065,160.098 424.996,160.006 L 424.996,160.00 L 96.865,160.00 C 43.367,160.00 0.00,203.393 0.00,256.924 C 0.00,310.452 43.367,353.846 96.867,353.845 C 102.768,353.845 108.541,353.288 114.151,352.276 C 113.709,355.373 113.469,358.535 113.469,361.753 C 113.469,398.676 143.385,428.614 180.29,428.614 C 201.799,428.614 220.923,418.433 233.144,402.634 C 254.938,430.253 288.675,448.00 326.571,448.00 C 391.273,448.00 443.881,396.319 445.502,331.969 ZM 112.00,128.00 C 112.00,128.00 160.00,64.00 160.00,16.00 C 160.00-10.51 138.51-32.00 112.00-32.00 C 85.49-32.00 64.00-10.51 64.00,16.00 C 64.00,64.00 112.00,128.00 112.00,128.00 ZM 400.00,128.00 C 400.00,128.00 448.00,64.00 448.00,16.00 C 448.00-10.51 426.51-32.00 400.00-32.00 C 373.49-32.00 352.00-10.51 352.00,16.00 C 352.00,64.00 400.00,128.00 400.00,128.00 ZM 256.00,160.00 C 256.00,160.00 304.00,96.00 304.00,48.00 C 304.00,21.49 282.51,0.00 256.00,0.00 C 229.49,0.00 208.00,21.49 208.00,48.00 C 208.00,96.00 256.00,160.00 256.00,160.00 Z"  />
<glyph unicode="&#xe019;" d="M 445.502,331.969C 443.881,396.319, 391.273,448.00, 326.57,448.00c-37.896,0.00-71.632-17.747-93.426-45.366 c-12.221,15.80-31.345,25.98-52.854,25.98c-36.905,0.00-66.821-29.938-66.821-66.861c0.00-3.218, 0.24-6.38, 0.682-9.477 c-5.61,1.012-11.383,1.569-17.284,1.569C 43.367,353.846,0.00,310.452,0.00,256.924C0.00,203.393, 43.367,160.00, 96.865,160.00l 82.737,0.00 l 21.333,64.00 l 170.842,0.00 l-32.00-64.00l 85.219,0.00 l0.00,0.007 C 473.065,160.098, 512.00,199.111, 512.00,247.229C 512.00,288.273, 483.66,322.679, 445.502,331.969zM 320.00,192.00L 224.00,192.00L 192.00,96.00L 256.00,96.00L 224.00,0.00L 352.00,128.00L 288.00,128.00 z"  />
<glyph unicode="&#xe01a;" d="M 512.00,352.00 L 576.00,352.00 L 576.00,96.00 C 576.00,43.065 532.935,0.00 480.00,0.00 C 427.065,0.00 384.00,43.065 384.00,96.00 L 384.00,352.00 C 384.00,369.645 369.645,384.00 352.00,384.00 C 334.355,384.00 320.00,369.645 320.00,352.00 L 320.00,96.00 C 320.00,43.065 276.935,0.00 224.00,0.00 C 171.065,0.00 128.00,43.065 128.00,96.00 L 128.00,352.00 C 128.00,369.645 113.645,384.00 96.00,384.00 C 78.355,384.00 64.00,369.645 64.00,352.00 L 64.00,96.00 L 0.00,96.00 L 0.00,352.00 C 0.00,404.935 43.065,448.00 96.00,448.00 C 148.935,448.00 192.00,404.935 192.00,352.00 L 192.00,96.00 C 192.00,78.355 206.355,64.00 224.00,64.00 C 241.645,64.00 256.00,78.355 256.00,96.00 L 256.00,352.00 C 256.00,404.935 299.065,448.00 352.00,448.00 C 404.935,448.00 448.00,404.935 448.00,352.00 L 448.00,96.00 C 448.00,78.355 462.355,64.00 480.00,64.00 C 497.645,64.00 512.00,78.355 512.00,96.00 L 512.00,352.00 Z" horiz-adv-x="576"  />
<glyph unicode="&#xe01b;" d="M 416.00,320.00 L 480.00,320.00 L 480.00,128.00 C 480.00,110.749 476.607,93.979 469.915,78.157 C 463.465,62.907 454.244,49.224 442.51,37.49 C 430.776,25.756 417.093,16.535 401.843,10.085 C 386.021,3.393 369.252,0.00 352.00,0.00 C 334.748,0.00 317.979,3.393 302.157,10.085 C 286.907,16.535 273.224,25.756 261.49,37.49 C 249.756,49.224 240.535,62.907 234.085,78.157 C 227.393,93.979 224.00,110.748 224.00,128.00 L 224.00,320.00 C 224.00,355.346 195.346,384.00 160.00,384.00 C 124.654,384.00 96.00,355.346 96.00,320.00 L 96.00,128.00 L 32.00,128.00 L 32.00,320.00 C 32.00,337.251 35.393,354.021 42.085,369.843 C 48.535,385.093 57.756,398.775 69.49,410.51 C 81.225,422.244 94.907,431.465 110.157,437.915 C 125.979,444.607 142.749,448.00 160.00,448.00 C 177.251,448.00 194.021,444.607 209.843,437.915 C 225.093,431.465 238.775,422.244 250.51,410.51 C 262.244,398.775 271.465,385.093 277.915,369.843 C 284.607,354.021 288.00,337.251 288.00,320.00 L 288.00,128.00 C 288.00,92.653 316.654,64.00 352.00,64.00 C 387.346,64.00 416.00,92.654 416.00,128.00 L 416.00,320.00 Z"  />
<glyph unicode="&#xe01c;" d="M 288.00,256.00 L 352.00,256.00 L 352.00,192.00 L 224.00,192.00 L 224.00,320.00 L 288.00,320.00 ZM 448.00,224.00c0.00,71.066-38.613,133.109-96.00,166.308L 352.00,480.00 L 160.00,480.00 l0.00-89.692 C 102.613,357.11, 64.00,295.066, 64.00,224.00 c0.00-71.065, 38.613-133.109, 96.00-166.308L 160.00-32.00 l 192.00,0.00 l0.00,89.692 C 409.387,90.891, 448.00,152.935, 448.00,224.00z M 256.00,96.00c-70.692,0.00-128.00,57.308-128.00,128.00 s 57.308,128.00, 128.00,128.00s 128.00-57.308, 128.00-128.00S 326.692,96.00, 256.00,96.00z"  />
<glyph unicode="&#xe01d;" d="M 256.00,400.638 L 83.583,32.00 L 428.417,32.00 L 256.00,400.638 Z M 256.00,480.00 L 256.00,480.00 C 267.035,480.00 278.07,472.559 286.442,457.676 L 504.978,22.12 C 521.723-7.646 507.478-32.00 473.327-32.00 L 38.673-32.00 C 4.521-32.00 -9.722-7.646 7.021,22.12 L 225.558,457.676 C 233.93,472.559 244.965,480.00 256.00,480.00 ZM 224.00,96.00A32.00,32.00 2700.00 1 1 288.00,96A32.00,32.00 2700.00 1 1 224.00,96zM 256.00,288.00 C 273.673,288.00 288.00,273.673 288.00,256.00 L 278.00,160.00 L 234.00,160.00 L 224.00,256.00 C 224.00,273.673 238.327,288.00 256.00,288.00 Z"  />
<glyph unicode="&#xe01e;" d="M 258.181,254.091l 94.386,29.34L 256.00,351.723L 256.00,480.00 L 152.532,405.466L 32.00,448.00l 42.533-120.533L0.00,224.00l 128.00,0.00 l 68.567-96.568l 29.341,94.387 L 448.00-32.00l 64.00,64.00L 258.181,254.091z M 202.327,277.672l-19.579-62.986l-38.084,53.01L 78.712,267.696 l 39.447,52.861L 96.979,383.021l 62.464-21.182 l 52.862,39.447l0.00-65.952 l 53.008-38.084L 202.327,277.672z"  />
<glyph unicode="&#xe01f;" d="M 128.00,384.00L 64.00,448.00L 32.00,448.00L 32.00,416.00L 96.00,352.00 zM 160.00,480.00L 192.00,480.00L 192.00,416.00L 160.00,416.00zM 288.00,320.00L 352.00,320.00L 352.00,288.00L 288.00,288.00zM 320.00,416.00L 320.00,448.00L 288.00,448.00L 224.00,384.00L 256.00,352.00 zM0.00,320.00L 64.00,320.00L 64.00,288.00L0.00,288.00zM 160.00,192.00L 192.00,192.00L 192.00,128.00L 160.00,128.00zM 32.00,192.00L 32.00,160.00L 64.00,160.00L 128.00,224.00L 96.00,256.00 zM 505.00,39.00L 186.941,357.059c-9.334,9.334-24.607,9.334-33.941,0.00L 122.941,327.00c-9.334-9.334-9.334-24.607,0.00-33.941L 441.00-25.00 c 9.334-9.334, 24.607-9.334, 33.941,0.00L 505.00,5.059C 514.334,14.393, 514.334,29.666, 505.00,39.00z M 240.00,208.00l-96.00,96.00l 32.00,32.00l 96.00-96.00L 240.00,208.00z"  />
<glyph unicode="&#xe020;" d="M 288.00,448.00L 512.00,448.00L 512.00,384.00L 288.00,384.00zM 288.00,352.00L 512.00,352.00L 512.00,288.00L 288.00,288.00zM 288.00,256.00L 512.00,256.00L 512.00,192.00L 288.00,192.00zM 288.00,160.00L 512.00,160.00L 512.00,96.00L 288.00,96.00zM 288.00,64.00L 512.00,64.00L 512.00,0.00L 288.00,0.00zM0.00,320.00L0.00,128.00L 96.00,128.00L 256.00-32.00L 256.00,480.00L 96.00,320.00 z"  />
<glyph unicode="&#xe021;" d="M 288.00,352.00L 512.00,352.00L 512.00,288.00L 288.00,288.00zM 288.00,256.00L 512.00,256.00L 512.00,192.00L 288.00,192.00zM 288.00,160.00L 512.00,160.00L 512.00,96.00L 288.00,96.00zM 288.00,64.00L 512.00,64.00L 512.00,0.00L 288.00,0.00zM0.00,320.00L0.00,128.00L 96.00,128.00L 256.00-32.00L 256.00,480.00L 96.00,320.00 z"  />
<glyph unicode="&#xe022;" d="M 288.00,256.00L 512.00,256.00L 512.00,192.00L 288.00,192.00zM 288.00,160.00L 512.00,160.00L 512.00,96.00L 288.00,96.00zM 288.00,64.00L 512.00,64.00L 512.00,0.00L 288.00,0.00zM0.00,320.00L0.00,128.00L 96.00,128.00L 256.00-32.00L 256.00,480.00L 96.00,320.00 z"  />
<glyph unicode="&#xe023;" d="M 288.00,160.00L 512.00,160.00L 512.00,96.00L 288.00,96.00zM 288.00,64.00L 512.00,64.00L 512.00,0.00L 288.00,0.00zM0.00,320.00L0.00,128.00L 96.00,128.00L 256.00-32.00L 256.00,480.00L 96.00,320.00 z"  />
<glyph unicode="&#xe024;" d="M 288.00,64.00L 512.00,64.00L 512.00,0.00L 288.00,0.00zM0.00,320.00L0.00,128.00L 96.00,128.00L 256.00-32.00L 256.00,480.00L 96.00,320.00 z"  />
<glyph unicode="&#xe025;" d="M 0.00,320.00 L 96.00,320.00 L 256.00,480.00 L 256.00-32.00 L 96.00,128.00 L 0.00,128.00 L 0.00,320.00 Z"  />
<glyph unicode="&#xe026;" d="M 352.00,480.00L 192.00,320.00L 96.00,320.00L 96.00,128.00L 352.00,384.00 zM 477.088,445.088L 34.912,2.912L 69.824-32.00L 210.912,109.088L 352.00-32.00L 352.00,250.177L 512.00,410.177 z"  />
<glyph unicode="&#xe027;" d="M 0.00,320.00 L 96.00,320.00 L 256.00,480.00 L 256.00-32.00 L 96.00,128.00 L 0.00,128.00 L 0.00,320.00 Z M 458.426,224.00 L 512.00,170.426 L 512.00,128.00 L 469.574,128.00 L 416.00,181.574 L 362.426,128.00 L 320.00,128.00 L 320.00,170.426 L 373.574,224.00 L 320.00,277.574 L 320.00,320.00 L 362.426,320.00 L 416.00,266.426 L 469.574,320.00 L 512.00,320.00 L 512.00,277.574 L 458.426,224.00 Z"  />
<glyph unicode="&#xe028;" d="M 480.00,170.426 L 480.00,128.00 L 437.574,128.00 L 384.00,181.574 L 330.426,128.00 L 288.00,128.00 L 288.00,170.426 L 341.574,224.00 L 288.00,277.574 L 288.00,320.00 L 330.426,320.00 L 384.00,266.426 L 437.574,320.00 L 480.00,320.00 L 480.00,277.574 L 426.426,224.00 ZM 214.082,448.041c-3.802,0.00-8.433-2.392-13.416-7.375L 80.00,320.00L0.00,320.00 l0.00-192.00 l 80.00,0.00 l 120.666-120.665c 4.983-4.982, 9.615-7.376, 13.417-7.376 c 5.99,0.00, 9.918,5.938, 9.918,17.041L 224.001,431.00 C 224.00,442.102, 220.07,448.041, 214.082,448.041z M 160.00,115.883L 99.882,176.00L 64.00,176.00 l0.00,96.00 l 35.882,0.00 L 160.00,332.118 L 160.00,115.883 z"  />
<glyph unicode="&#xe029;" d="M 214.082,448.041c-3.802,0.00-8.433-2.392-13.416-7.375L 80.00,320.00L0.00,320.00 l0.00-192.00 l 80.00,0.00 l 120.666-120.665c 4.983-4.982, 9.615-7.376, 13.417-7.376 c 5.99,0.00, 9.918,5.938, 9.918,17.041L 224.001,431.00 C 224.00,442.102, 220.07,448.041, 214.082,448.041z M 160.00,115.883L 99.882,176.00L 64.00,176.00 l0.00,96.00 l 35.882,0.00 L 160.00,332.118 L 160.00,115.883 z"  />
<glyph unicode="&#xe02a;" d="M 200.666,440.666 C 213.50,453.50 224.00,449.15 224.00,431.00 L 224.00,17.00 C 224.00-1.15 213.50-5.499 200.666,7.335 L 80.00,128.00 L 0.00,128.00 L 0.00,320.00 L 80.00,320.00 L 200.666,440.666 ZM 480.00,170.426 L 480.00,128.00 L 437.574,128.00 L 384.00,181.574 L 330.426,128.00 L 288.00,128.00 L 288.00,170.426 L 341.574,224.00 L 288.00,277.574 L 288.00,320.00 L 330.426,320.00 L 384.00,266.426 L 437.574,320.00 L 480.00,320.00 L 480.00,277.574 L 426.426,224.00 Z"  />
<glyph unicode="&#xe02b;" d="M 200.666,440.666 C 213.50,453.50 224.00,449.15 224.00,431.00 L 224.00,17.00 C 224.00-1.15 213.50-5.499 200.666,7.335 L 80.00,128.00 L 0.00,128.00 L 0.00,320.00 L 80.00,320.00 L 200.666,440.666 Z"  />
<glyph unicode="&#xe02c;" d="M 359.765,64.235c-6.143,0.00-12.284,2.343-16.971,7.029c-9.372,9.372-9.372,24.568,0.00,33.941 c 65.503,65.503, 65.503,172.085,0.00,237.588c-9.372,9.373-9.372,24.569,0.00,33.941c 9.372,9.371, 24.569,9.372, 33.941,0.00 C 417.532,335.938, 440.00,281.696, 440.00,224.00c0.00-57.695-22.468-111.938-63.265-152.735C 372.049,66.578, 365.907,64.235, 359.765,64.235zM 274.51,109.49c-6.143,0.00-12.284,2.343-16.971,7.029c-9.373,9.373-9.373,24.568,0.00,33.941 c 40.55,40.55, 40.55,106.529,0.00,147.078c-9.373,9.373-9.373,24.569,0.00,33.941c 9.373,9.372, 24.568,9.372, 33.941,0.00 c 59.265-59.265, 59.265-155.696,0.00-214.961C 286.794,111.833, 280.652,109.49, 274.51,109.49zM 214.082,448.041c-3.802,0.00-8.433-2.392-13.416-7.375L 80.00,320.00L0.00,320.00 l0.00-192.00 l 80.00,0.00 l 120.666-120.665c 4.983-4.982, 9.615-7.376, 13.417-7.376 c 5.99,0.00, 9.918,5.938, 9.918,17.041L 224.001,431.00 C 224.00,442.102, 220.07,448.041, 214.082,448.041z M 160.00,115.883L 99.882,176.00L 64.00,176.00 l0.00,96.00 l 35.882,0.00 L 160.00,332.118 L 160.00,115.883 z"  />
<glyph unicode="&#xe02d;" d="M 359.765,64.235c-6.143,0.00-12.284,2.343-16.971,7.029c-9.372,9.372-9.372,24.568,0.00,33.941 c 65.503,65.503, 65.503,172.085,0.00,237.588c-9.372,9.373-9.372,24.569,0.00,33.941c 9.372,9.371, 24.569,9.372, 33.941,0.00 C 417.532,335.938, 440.00,281.696, 440.00,224.00c0.00-57.695-22.468-111.938-63.265-152.735C 372.049,66.578, 365.907,64.235, 359.765,64.235zM 274.51,109.49c-6.143,0.00-12.284,2.343-16.971,7.029c-9.373,9.373-9.373,24.568,0.00,33.941 c 40.55,40.55, 40.55,106.529,0.00,147.078c-9.373,9.373-9.373,24.569,0.00,33.941c 9.373,9.372, 24.568,9.372, 33.941,0.00 c 59.265-59.265, 59.265-155.696,0.00-214.961C 286.794,111.833, 280.652,109.49, 274.51,109.49zM 200.666,440.666 C 213.50,453.50 224.00,449.15 224.00,431.00 L 224.00,17.00 C 224.00-1.15 213.50-5.499 200.666,7.335 L 80.00,128.00 L 0.00,128.00 L 0.00,320.00 L 80.00,320.00 L 200.666,440.666 Z"  />
<glyph unicode="&#xe02e;" d="M 274.51,109.49c-6.143,0.00-12.284,2.343-16.971,7.029c-9.373,9.373-9.373,24.568,0.00,33.941 c 40.55,40.55, 40.55,106.529,0.00,147.078c-9.373,9.373-9.373,24.569,0.00,33.941c 9.373,9.372, 24.568,9.372, 33.941,0.00 c 59.265-59.265, 59.265-155.696,0.00-214.961C 286.794,111.833, 280.652,109.49, 274.51,109.49zM 214.082,448.041c-3.802,0.00-8.433-2.392-13.416-7.375L 80.00,320.00L0.00,320.00 l0.00-192.00 l 80.00,0.00 l 120.666-120.665c 4.983-4.982, 9.615-7.376, 13.417-7.376 c 5.99,0.00, 9.918,5.938, 9.918,17.041L 224.001,431.00 C 224.00,442.102, 220.07,448.041, 214.082,448.041z M 160.00,115.883L 99.882,176.00L 64.00,176.00 l0.00,96.00 l 35.882,0.00 L 160.00,332.118 L 160.00,115.883 z"  />
<glyph unicode="&#xe02f;" d="M 274.51,109.49c-6.143,0.00-12.284,2.343-16.971,7.029c-9.373,9.373-9.373,24.568,0.00,33.941 c 40.55,40.55, 40.55,106.529,0.00,147.078c-9.373,9.373-9.373,24.569,0.00,33.941c 9.373,9.372, 24.568,9.372, 33.941,0.00 c 59.265-59.265, 59.265-155.696,0.00-214.961C 286.794,111.833, 280.652,109.49, 274.51,109.49zM 200.666,440.666 C 213.50,453.50 224.00,449.15 224.00,431.00 L 224.00,17.00 C 224.00-1.15 213.50-5.499 200.666,7.335 L 80.00,128.00 L 0.00,128.00 L 0.00,320.00 L 80.00,320.00 L 200.666,440.666 Z"  />
<glyph unicode="&#xe030;" d="M 214.082,448.041c-3.802,0.00-8.433-2.392-13.416-7.375L 80.00,320.00L0.00,320.00 l0.00-192.00 l 80.00,0.00 l 120.666-120.665c 4.983-4.982, 9.615-7.376, 13.417-7.376 c 5.99,0.00, 9.918,5.938, 9.918,17.041L 224.001,431.00 C 224.00,442.102, 220.07,448.041, 214.082,448.041z M 160.00,115.883L 99.882,176.00L 64.00,176.00 l0.00,96.00 l 35.882,0.00 L 160.00,332.118 L 160.00,115.883 zM 512.00,192.00 L 416.00,192.00 L 416.00,96.00 L 352.00,96.00 L 352.00,192.00 L 256.00,192.00 L 256.00,256.00 L 352.00,256.00 L 352.00,352.00 L 416.00,352.00 L 416.00,256.00 L 512.00,256.00 Z"  />
<glyph unicode="&#xe031;" d="M 214.082,448.041 C 220.07,448.041 224.00,442.102 224.001,431.00 L 224.001,17.00 C 224.001,5.897 220.073-0.041 214.083-0.041 C 210.281-0.041 205.649,2.353 200.666,7.335 L 80.00,128.00 L 0.00,128.00 L 0.00,320.00 L 80.00,320.00 L 200.666,440.666 C 205.649,445.649 210.28,448.041 214.082,448.041 ZM 512.00,192.00 L 416.00,192.00 L 416.00,96.00 L 352.00,96.00 L 352.00,192.00 L 256.00,192.00 L 256.00,256.00 L 352.00,256.00 L 352.00,352.00 L 416.00,352.00 L 416.00,256.00 L 512.00,256.00 Z"  />
<glyph unicode="&#xe032;" d="M 445.02,18.98c-6.143,0.00-12.284,2.343-16.971,7.029c-9.372,9.373-9.372,24.568,0.00,33.941 C 471.868,103.771, 496.001,162.03, 496.001,224.00c0.00,61.969-24.133,120.229-67.952,164.049c-9.372,9.373-9.372,24.569,0.00,33.941 c 9.372,9.372, 24.569,9.372, 33.941,0.00c 52.885-52.886, 82.011-123.20, 82.011-197.99c0.00-74.791-29.126-145.104-82.011-197.99 C 457.304,21.323, 451.162,18.98, 445.02,18.98zM 359.765,64.235c-6.143,0.00-12.284,2.343-16.971,7.029c-9.372,9.372-9.372,24.568,0.00,33.941 c 65.503,65.503, 65.503,172.085,0.00,237.588c-9.372,9.373-9.372,24.569,0.00,33.941c 9.372,9.371, 24.569,9.372, 33.941,0.00 C 417.532,335.938, 440.00,281.696, 440.00,224.00c0.00-57.695-22.468-111.938-63.265-152.735C 372.049,66.578, 365.907,64.235, 359.765,64.235zM 274.51,109.49c-6.143,0.00-12.284,2.343-16.971,7.029c-9.373,9.373-9.373,24.568,0.00,33.941 c 40.55,40.55, 40.55,106.529,0.00,147.078c-9.373,9.373-9.373,24.569,0.00,33.941c 9.373,9.372, 24.568,9.372, 33.941,0.00 c 59.265-59.265, 59.265-155.696,0.00-214.961C 286.794,111.833, 280.652,109.49, 274.51,109.49zM 214.082,448.041c-3.802,0.00-8.433-2.392-13.416-7.375L 80.00,320.00L0.00,320.00 l0.00-192.00 l 80.00,0.00 l 120.666-120.665c 4.983-4.982, 9.615-7.376, 13.417-7.376 c 5.99,0.00, 9.918,5.938, 9.918,17.041L 224.001,431.00 C 224.00,442.102, 220.07,448.041, 214.082,448.041z M 160.00,115.883L 99.882,176.00L 64.00,176.00 l0.00,96.00 l 35.882,0.00 L 160.00,332.118 L 160.00,115.883 z" horiz-adv-x="544"  />
<glyph unicode="&#xe033;" d="M 445.02,18.98c-6.143,0.00-12.284,2.343-16.971,7.029c-9.372,9.373-9.372,24.568,0.00,33.941 C 471.868,103.771, 496.001,162.03, 496.001,224.00c0.00,61.969-24.133,120.229-67.952,164.049c-9.372,9.373-9.372,24.569,0.00,33.941 c 9.372,9.372, 24.569,9.372, 33.941,0.00c 52.885-52.886, 82.011-123.20, 82.011-197.99c0.00-74.791-29.126-145.104-82.011-197.99 C 457.304,21.323, 451.162,18.98, 445.02,18.98zM 359.765,64.235c-6.143,0.00-12.284,2.343-16.971,7.029c-9.372,9.372-9.372,24.568,0.00,33.941 c 65.503,65.503, 65.503,172.085,0.00,237.588c-9.372,9.373-9.372,24.569,0.00,33.941c 9.372,9.371, 24.569,9.372, 33.941,0.00 C 417.532,335.938, 440.00,281.696, 440.00,224.00c0.00-57.695-22.468-111.938-63.265-152.735C 372.049,66.578, 365.907,64.235, 359.765,64.235zM 274.51,109.49c-6.143,0.00-12.284,2.343-16.971,7.029c-9.373,9.373-9.373,24.568,0.00,33.941 c 40.55,40.55, 40.55,106.529,0.00,147.078c-9.373,9.373-9.373,24.569,0.00,33.941c 9.373,9.372, 24.568,9.372, 33.941,0.00 c 59.265-59.265, 59.265-155.696,0.00-214.961C 286.794,111.833, 280.652,109.49, 274.51,109.49zM 200.666,440.666 C 213.50,453.50 224.00,449.15 224.00,431.00 L 224.00,17.00 C 224.00-1.15 213.50-5.499 200.666,7.335 L 80.00,128.00 L 0.00,128.00 L 0.00,320.00 L 80.00,320.00 L 200.666,440.666 Z" horiz-adv-x="544"  />
<glyph unicode="&#xe034;" d="M 214.082,448.041c-3.802,0.00-8.433-2.392-13.416-7.375L 80.00,320.00L0.00,320.00 l0.00-192.00 l 80.00,0.00 l 120.666-120.665c 4.983-4.982, 9.615-7.376, 13.417-7.376 c 5.99,0.00, 9.918,5.938, 9.918,17.041L 224.001,431.00 C 224.00,442.102, 220.07,448.041, 214.082,448.041z M 160.00,115.883L 99.882,176.00L 64.00,176.00 l0.00,96.00 l 35.882,0.00 L 160.00,332.118 L 160.00,115.883 zM 256.00,256.00L 512.00,256.00L 512.00,192.00L 256.00,192.00z"  />
<glyph unicode="&#xe035;" d="M 214.082,448.041 C 220.07,448.041 224.00,442.102 224.001,431.00 L 224.001,17.00 C 224.001,5.897 220.073-0.041 214.083-0.041 C 210.281-0.041 205.649,2.353 200.666,7.335 L 80.00,128.00 L 0.00,128.00 L 0.00,320.00 L 80.00,320.00 L 200.666,440.666 C 205.649,445.649 210.28,448.041 214.082,448.041 ZM 256.00,256.00L 512.00,256.00L 512.00,192.00L 256.00,192.00z"  />
<glyph unicode="&#xe036;" d="M 256.00,480.00C 114.615,480.00,0.00,365.385,0.00,224.00s 114.615-256.00, 256.00-256.00s 256.00,114.615, 256.00,256.00S 397.385,480.00, 256.00,480.00z M 406.434,260.937 c-16.979-95.648-111.854-176.648-140.39-195.155c-28.544-18.503-54.577,7.411-64.019,26.997 c-10.808,22.354-43.205,143.47-51.684,153.51c-8.482,10.019-33.938-10.04-33.938-10.04l-12.346,16.188 c0.00,0.00, 51.691,61.724, 91.02,69.439c 41.702,8.183, 41.64-64.033, 51.67-104.121c 9.70-38.782, 16.22-60.976, 24.688-60.976 c 8.485,0.00, 24.691,21.631, 42.426,54.785c 17.768,33.188-0.769,62.505-35.486,41.646C 292.268,336.536, 423.406,356.57, 406.434,260.937z"  />
<glyph unicode="&#xe037;" d="M 426.655,480.00L 85.345,480.00 C 38.406,480.00,0.00,441.592,0.00,394.654l0.00-341.31 C0.00,6.375, 38.406-32.00, 85.345-32.00l 341.31,0.00 C 473.594-32.00, 512.00,6.375, 512.00,53.345L 512.00,394.654 C 512.00,441.592, 473.594,480.00, 426.655,480.00z M 406.434,260.937 c-16.979-95.648-111.854-176.648-140.39-195.155c-28.544-18.503-54.577,7.411-64.019,26.997 c-10.808,22.354-43.205,143.47-51.684,153.51c-8.482,10.019-33.938-10.04-33.938-10.04l-12.346,16.188 c0.00,0.00, 51.691,61.724, 91.02,69.439c 41.702,8.183, 41.64-64.033, 51.67-104.121c 9.70-38.782, 16.22-60.976, 24.688-60.976 c 8.485,0.00, 24.691,21.631, 42.426,54.785c 17.768,33.188-0.769,62.505-35.486,41.646C 292.268,336.536, 423.406,356.57, 406.434,260.937z"  />
<glyph unicode="&#xe038;" d="M0.00,325.815l 20.797-27.272c0.00,0.00, 42.885,33.804, 57.18,16.901c 14.294-16.901, 68.868-220.978, 87.085-258.623 c 15.90-33.015, 59.759-76.66, 107.857-45.491c 48.068,31.17, 207.92,167.643, 236.533,328.808 c 28.59,161.113-192.36,127.363-215.765-13.005c 58.495,35.118, 89.718-14.269, 59.785-70.186 c-29.879-55.862-57.18-92.296-71.476-92.296c-14.269,0.00-25.245,37.384-41.594,102.723c-16.899,67.551-16.796,189.23-87.058,175.435 C 87.085,429.803,0.00,325.815,0.00,325.815z"  />
<glyph unicode="&#xe039;" d="M 80.00,274.00c0.00,17.673-14.327,32.00-32.00,32.00s-32.00-14.327-32.00-32.00c0.00-11.843, 6.438-22.175, 16.00-27.708L 32.00-32.00 l 32.00,0.00 L 64.00,246.292 C 73.562,251.825, 80.00,262.157, 80.00,274.00zM 160.00,320.00l0.00-74.848 C 99.878,168.898, 64.00,72.641, 64.00-32.00l 32.00,0.00 c0.00,56.174, 10.995,110.65, 32.678,161.916 c 14.316,33.848, 32.865,65.338, 55.366,94.084L 256.00,224.00 l0.00,71.956 c 28.746,22.501, 60.236,41.049, 94.084,55.366 C 401.35,373.005, 455.826,384.00, 512.00,384.00L 512.00,416.00 c-104.641,0.00-200.899-35.878-277.152-96.00L 160.00,320.00 zM 233.708,448.00c-5.534,9.562-15.866,16.00-27.708,16.00c-17.673,0.00-32.00-14.326-32.00-32.00s 14.327-32.00, 32.00-32.00c 11.843,0.00, 22.175,6.438, 27.708,16.00 L 512.00,416.00 L 512.00,448.00 L 233.708,448.00 zM 160.00,0.00L 224.00,0.00L 224.00-32.00L 160.00-32.00zM 288.00,0.00L 352.00,0.00L 352.00-32.00L 288.00-32.00zM 480.00,64.00L 480.00,0.00L 416.00,0.00L 416.00-32.00L 512.00-32.00L 512.00,64.00 zM 480.00,320.00L 512.00,320.00L 512.00,256.00L 480.00,256.00zM 480.00,192.00L 512.00,192.00L 512.00,128.00L 480.00,128.00z"  />
<glyph unicode="&#xe03a;" d="M 448.00,384.00L 64.00,384.00 c-35.20,0.00-64.00-28.80-64.00-64.00l0.00-224.00 c0.00-35.20, 28.80-64.00, 64.00-64.00l 384.00,0.00 c 35.20,0.00, 64.00,28.80, 64.00,64.00L 512.00,320.00 C 512.00,355.20, 483.20,384.00, 448.00,384.00z M 64.00,96.00c0.00,70.692, 35.817,128.00, 80.00,128.00c-26.51,0.00-48.00,21.49-48.00,48.00s 21.49,48.00, 48.00,48.00s 48.00-21.49, 48.00-48.00s-21.49-48.00-48.00-48.00 c 44.183,0.00, 80.00-57.308, 80.00-128.00L 64.00,96.00 z M 448.00,96.00L 288.00,96.00 l0.00,32.00 l 160.00,0.00 L 448.00,96.00 z M 448.00,192.00L 288.00,192.00 l0.00,32.00 l 160.00,0.00 L 448.00,192.00 z M 448.00,288.00L 288.00,288.00 l0.00,32.00 l 160.00,0.00 L 448.00,288.00 z"  />
<glyph unicode="&#xe03b;" d="M 488.00-32.00L 152.00-32.00 c-13.255,0.00-24.00,10.745-24.00,24.00c0.00,34.431, 14.534,76.102, 38.879,111.471c 20.346,29.559, 45.342,51.81, 72.339,64.805 c-11.899,10.822-22.147,24.013-30.254,39.061c-13.00,24.131-19.873,52.024-19.873,80.664c0.00,39.803, 13.102,77.411, 36.893,105.895 C 250.816,423.626, 284.205,440.00, 320.00,440.00s 69.184-16.374, 94.017-46.105c 23.79-28.484, 36.893-66.091, 36.893-105.895 c0.00-28.64-6.872-56.533-19.872-80.664c-8.107-15.048-18.355-28.239-30.255-39.061c 26.997-12.995, 51.993-35.246, 72.339-64.805 C 497.466,68.102, 512.00,26.431, 512.00-8.00C 512.00-21.255, 501.255-32.00, 488.00-32.00z M 179.037,16.00l 281.926,0.00 c-4.613,19.67-14.26,41.192-27.381,60.255c-20.727,30.113-46.588,49.811-72.819,55.463c-11.053,2.382-18.944,12.155-18.944,23.462 l0.00,17.146 c0.00,8.63, 4.633,16.595, 12.135,20.861c 29.739,16.916, 48.956,54.133, 48.956,94.813c0.00,57.346-37.192,104.00-82.909,104.00 s-82.909-46.654-82.909-104.00c0.00-40.68, 19.217-77.896, 48.957-94.813c 7.501-4.267, 12.134-12.231, 12.134-20.861l0.00-17.146 c0.00-11.307-7.892-21.08-18.944-23.462c-26.231-5.652-52.092-25.35-72.82-55.463C 193.296,57.192, 183.651,35.67, 179.037,16.00zM 98.557,48.00l-47.52,0.00 c 4.614,19.67, 14.259,41.192, 27.38,60.255c 20.728,30.113, 46.589,49.811, 72.82,55.463 c 11.053,2.382, 18.944,12.155, 18.944,23.462l0.00,17.146 c0.00,8.63-4.633,16.595-12.134,20.861c-29.74,16.917-48.957,54.133-48.957,94.813 c0.00,57.346, 37.192,104.00, 82.909,104.00c 3.127,0.00, 6.213-0.226, 9.251-0.651c 13.179,14.667, 28.117,26.587, 44.321,35.502 C 228.975,467.467, 210.821,472.00, 192.00,472.00c-35.795,0.00-69.184-16.374-94.017-46.105C 74.193,397.411, 61.091,359.803, 61.091,320.00 c0.00-28.64, 6.872-56.533, 19.873-80.664c 8.107-15.048, 18.355-28.238, 30.254-39.061c-26.997-12.995-51.993-35.246-72.339-64.805 C 14.534,100.102,0.00,58.431,0.00,24.00c0.00-13.255, 10.745-24.00, 24.00-24.00l 66.193,0.00 C 90.931,15.513, 93.792,31.706, 98.557,48.00z"  />
<glyph unicode="&#xe03c;" d="M 367.497,77.313c-9.476,1.494-9.692,27.327-9.692,27.327s 27.844,27.328, 33.912,64.076 c 16.326,0.00, 26.407,39.069, 10.082,52.814c 0.681,14.47, 20.984,113.588-81.799,113.588c-102.782,0.00-82.479-99.118-81.799-113.588 c-16.327-13.745-6.244-52.814, 10.081-52.814c 6.067-36.748, 33.913-64.076, 33.913-64.076s-0.216-25.833-9.692-27.327 C 241.979,72.497, 128.00,22.655, 128.00-32.00l 192.00,0.00 l 192.00,0.00 C 512.00,22.655, 398.021,72.497, 367.497,77.313zM 172.027,68.595c 22.047,13.575, 48.813,26.154, 70.769,33.712c-7.876,11.216-16.647,26.468-22.165,44.531 c-7.703,6.283-13.972,15.266-17.999,26.301c-4.033,11.052-5.561,23.426-4.304,34.842c 0.902,8.196, 3.239,15.833, 6.825,22.544 c-2.175,23.293-3.707,69.017, 26.224,102.366c 11.607,12.933, 26.278,22.23, 43.85,27.843C 272.09,393.114, 255.647,431.119, 192.00,431.119 c-102.782,0.00-82.479-99.118-81.799-113.588c-16.327-13.745-6.244-52.814, 10.081-52.814c 6.067-36.748, 33.913-64.076, 33.913-64.076 s-0.216-25.833-9.692-27.327C 113.979,168.497,0.00,118.655,0.00,64.00l 164.798,0.00 C 167.153,65.537, 169.551,67.07, 172.027,68.595z"  />
<glyph unicode="&#xe03d;" d="M 160.00,384.00A96.00,96.00 10980.00 1 1 352.00,384A96.00,96.00 10980.00 1 1 160.00,384zM 384.039,256.00l-0.078,0.00 l-17.634,0.00 l-99.552-202.122L 304.00,240.00l-48.00,48.00l-48.00-48.00l 37.225-186.122L 145.674,256.00l-17.635,0.00 l-0.077,0.00 C 64.00,256.00, 64.00,213.007, 64.00,160.00l0.00-160.00 l 384.00,0.00 L 448.00,160.00 C 448.00,213.007, 448.00,256.00, 384.039,256.00z"  />
<glyph unicode="&#xe03e;" d="M 128.00,320.00A128.00,128.00 12780.00 1 1 384.00,320A128.00,128.00 12780.00 1 1 128.00,320zM 384.00,160.00L 128.00,160.00 C 57.308,160.00,0.00,102.691,0.00,32.00l0.00-32.00 l 4.033,0.00 l 503.934,0.00 L 512.00,0.00 l0.00,32.00 C 512.00,102.691, 454.692,160.00, 384.00,160.00z"  />
<glyph unicode="&#xe03f;" d="M 424.00-32.00L 88.00-32.00 c-13.255,0.00-24.00,10.745-24.00,24.00c0.00,34.431, 14.534,76.102, 38.879,111.471c 20.346,29.559, 45.342,51.81, 72.339,64.805 c-11.899,10.822-22.147,24.013-30.254,39.061c-13.00,24.131-19.873,52.024-19.873,80.664c0.00,39.803, 13.102,77.411, 36.893,105.895 C 186.816,423.626, 220.205,440.00, 256.00,440.00s 69.184-16.374, 94.017-46.105c 23.79-28.484, 36.893-66.091, 36.893-105.895 c0.00-28.64-6.872-56.533-19.872-80.664c-8.107-15.048-18.355-28.239-30.255-39.061c 26.997-12.995, 51.993-35.246, 72.339-64.805 C 433.466,68.102, 448.00,26.431, 448.00-8.00C 448.00-21.255, 437.255-32.00, 424.00-32.00z M 115.037,16.00l 281.926,0.00 c-4.613,19.67-14.26,41.192-27.381,60.255c-20.727,30.113-46.588,49.811-72.819,55.463c-11.053,2.382-18.944,12.155-18.944,23.462 l0.00,17.146 c0.00,8.63, 4.633,16.595, 12.135,20.861c 29.739,16.916, 48.956,54.133, 48.956,94.813c0.00,57.346-37.192,104.00-82.909,104.00 c-45.716,0.00-82.909-46.654-82.909-104.00c0.00-40.68, 19.217-77.896, 48.957-94.813c 7.501-4.267, 12.134-12.231, 12.134-20.861l0.00-17.146 c0.00-11.307-7.892-21.08-18.944-23.462c-26.231-5.652-52.092-25.35-72.82-55.463C 129.296,57.192, 119.651,35.67, 115.037,16.00z"  />
<glyph unicode="&#xe040;" d="M 311.413,128.632c-11.055,1.759-11.307,32.157-11.307,32.157s 32.484,32.158, 39.564,75.401 c 19.045,0.00, 30.809,45.973, 11.761,62.148C 352.226,315.365, 375.911,432.00, 256.00,432.00c-119.911,0.00-96.225-116.635-95.432-133.662 c-19.047-16.175-7.285-62.148, 11.761-62.148c 7.079-43.243, 39.564-75.401, 39.564-75.401s-0.252-30.398-11.307-32.157 C 164.976,122.966, 32.00,64.315, 32.00,0.00l 224.00,0.00 l 224.00,0.00 C 480.00,64.315, 347.024,122.966, 311.413,128.632z"  />
<glyph unicode="&#xe041;" d="M 384.00,192.00L 352.00,192.00L 352.00,128.00L 288.00,128.00L 288.00,96.00L 352.00,96.00L 352.00,32.00L 384.00,32.00L 384.00,96.00L 448.00,96.00L 448.00,128.00L 384.00,128.00 zM 206.92,16.00L 51.037,16.00 c 4.614,19.67, 14.259,41.192, 27.38,60.255c 20.728,30.113, 46.589,49.811, 72.82,55.463 c 11.053,2.382, 18.944,12.155, 18.944,23.462l0.00,17.146 c0.00,8.63-4.633,16.595-12.134,20.861c-29.74,16.917-48.957,54.133-48.957,94.813 c0.00,57.346, 37.193,104.00, 82.909,104.00c 45.717,0.00, 82.909-46.654, 82.909-104.00c0.00-4.599-0.258-9.15-0.737-13.636 c 15.016,8.696, 31.351,15.361, 48.629,19.638c-1.249,37.569-14.193,72.845-36.784,99.893C 261.184,423.626, 227.795,440.00, 192.00,440.00 s-69.184-16.374-94.017-46.105C 74.193,365.411, 61.091,327.803, 61.091,288.00c0.00-28.64, 6.872-56.533, 19.873-80.664 c 8.107-15.048, 18.355-28.238, 30.254-39.061c-26.997-12.995-51.993-35.246-72.339-64.805C 14.534,68.102,0.00,26.431,0.00-8.00 c0.00-13.255, 10.745-24.00, 24.00-24.00l 223.923,0.00 C 231.704-18.46, 217.81-2.232, 206.92,16.00zM 368.00,218.00c 58.448,0.00, 106.00-47.552, 106.00-106.00s-47.552-106.00-106.00-106.00s-106.00,47.552-106.00,106.00S 309.552,218.00, 368.00,218.00 M 368.00,256.00 c-79.529,0.00-144.00-64.471-144.00-144.00s 64.471-144.00, 144.00-144.00s 144.00,64.471, 144.00,144.00S 447.529,256.00, 368.00,256.00L 368.00,256.00z"  />
<glyph unicode="&#xe042;" d="M 448.00,192.00L 448.00,256.00L 384.00,256.00L 384.00,192.00L 320.00,192.00L 320.00,128.00L 384.00,128.00L 384.00,64.00L 448.00,64.00L 448.00,128.00L 512.00,128.00L 512.00,192.00 zM 384.00,57.257c-41.683,38.573-112.118,67.481-136.587,71.375c-11.056,1.759-11.308,32.157-11.308,32.157 s 32.484,32.158, 39.564,75.401c 19.045,0.00, 30.809,45.973, 11.761,62.148C 288.227,315.365, 311.911,432.00, 192.00,432.00 S 95.775,315.365, 96.568,298.338c-19.047-16.175-7.285-62.148, 11.761-62.148c 7.079-43.243, 39.564-75.401, 39.564-75.401 s-0.252-30.398-11.307-32.157C 112.118,124.738, 41.682,95.83,0.00,57.257L0.00,0.00 l 192.00,0.00 l 192.00,0.00 L 384.00,57.257 z"  />
<glyph unicode="&#xe043;" d="M 218.00,112.00 C 218.00,83.312 224.681,56.159 236.555,32.00 L 192.00,32.00 L 0.00,32.00 L 0.00,89.257 C 41.682,127.83 112.118,156.738 136.586,160.632 C 147.641,162.391 147.893,192.789 147.893,192.789 C 147.893,192.789 115.408,224.947 108.329,268.19 C 89.283,268.19 77.521,314.163 96.568,330.338 C 95.775,347.365 72.089,464.00 192.00,464.00 C 311.911,464.00 288.227,347.365 287.43,330.338 C 306.478,314.163 294.714,268.19 275.669,268.19 C 273.538,255.173 269.098,243.173 263.942,232.739 C 253.726,221.239 244.935,208.449 237.865,194.634 C 236.756,193.437 236.105,192.789 236.105,192.789 C 236.105,192.789 236.11,192.192 236.148,191.185 C 224.526,167.23 218.00,140.364 218.00,112.00 ZM 400.00,256.00c-79.529,0.00-144.00-64.471-144.00-144.00s 64.471-144.00, 144.00-144.00s 144.00,64.471, 144.00,144.00S 479.529,256.00, 400.00,256.00z M 480.00,96.00l-64.00,0.00 l0.00-64.00 l-32.00,0.00 l0.00,64.00 l-64.00,0.00 l0.00,32.00 l 64.00,0.00 l0.00,64.00 l 32.00,0.00 l0.00-64.00 l 64.00,0.00 L 480.00,96.00 z" horiz-adv-x="544"  />
<glyph unicode="&#xe044;" d="M 206.92,16.00L 51.037,16.00 c 4.614,19.67, 14.259,41.192, 27.38,60.255c 20.728,30.113, 46.589,49.811, 72.82,55.463 c 11.053,2.382, 18.944,12.155, 18.944,23.462l0.00,17.146 c0.00,8.63-4.633,16.595-12.134,20.861c-29.74,16.917-48.957,54.133-48.957,94.813 c0.00,57.346, 37.193,104.00, 82.909,104.00c 45.717,0.00, 82.909-46.654, 82.909-104.00c0.00-4.599-0.258-9.15-0.737-13.636 c 15.016,8.696, 31.351,15.361, 48.629,19.638c-1.249,37.569-14.193,72.845-36.784,99.893C 261.184,423.626, 227.795,440.00, 192.00,440.00 s-69.184-16.374-94.017-46.105C 74.193,365.411, 61.091,327.803, 61.091,288.00c0.00-28.64, 6.872-56.533, 19.873-80.664 c 8.107-15.048, 18.355-28.238, 30.254-39.061c-26.997-12.995-51.993-35.246-72.339-64.805C 14.534,68.102,0.00,26.431,0.00-8.00 c0.00-13.255, 10.745-24.00, 24.00-24.00l 223.923,0.00 C 231.704-18.46, 217.81-2.232, 206.92,16.00zM 288.00,128.00L 448.00,128.00L 448.00,96.00L 288.00,96.00zM 368.00,218.00c 58.448,0.00, 106.00-47.552, 106.00-106.00s-47.552-106.00-106.00-106.00s-106.00,47.552-106.00,106.00S 309.552,218.00, 368.00,218.00 M 368.00,256.00 c-79.529,0.00-144.00-64.471-144.00-144.00s 64.471-144.00, 144.00-144.00s 144.00,64.471, 144.00,144.00S 447.529,256.00, 368.00,256.00L 368.00,256.00z"  />
<glyph unicode="&#xe045;" d="M 320.00,192.00L 512.00,192.00L 512.00,128.00L 320.00,128.00zM 384.00,57.257c-41.683,38.573-112.118,67.481-136.587,71.375c-11.056,1.759-11.308,32.157-11.308,32.157 s 32.484,32.158, 39.564,75.401c 19.045,0.00, 30.809,45.973, 11.761,62.148C 288.227,315.365, 311.911,432.00, 192.00,432.00 S 95.775,315.365, 96.568,298.338c-19.047-16.175-7.285-62.148, 11.761-62.148c 7.079-43.243, 39.564-75.401, 39.564-75.401 s-0.252-30.398-11.307-32.157C 112.118,124.738, 41.682,95.83,0.00,57.257L0.00,0.00 l 192.00,0.00 l 192.00,0.00 L 384.00,57.257 z"  />
<glyph unicode="&#xe046;" d="M 218.00,112.00 C 218.00,83.312 224.681,56.159 236.555,32.00 L 192.00,32.00 L 0.00,32.00 L 0.00,89.257 C 41.682,127.83 112.118,156.738 136.586,160.632 C 147.641,162.391 147.893,192.789 147.893,192.789 C 147.893,192.789 115.408,224.947 108.329,268.19 C 89.283,268.19 77.521,314.163 96.568,330.338 C 95.775,347.365 72.089,464.00 192.00,464.00 C 311.911,464.00 288.227,347.365 287.43,330.338 C 306.478,314.163 294.714,268.19 275.669,268.19 C 273.538,255.173 269.098,243.173 263.942,232.739 C 253.726,221.239 244.935,208.449 237.865,194.634 C 236.756,193.437 236.105,192.789 236.105,192.789 C 236.105,192.789 236.11,192.192 236.148,191.185 C 224.526,167.23 218.00,140.364 218.00,112.00 ZM 400.00,256.00c-79.529,0.00-144.00-64.471-144.00-144.00s 64.471-144.00, 144.00-144.00s 144.00,64.471, 144.00,144.00S 479.529,256.00, 400.00,256.00z M 480.00,96.00L 320.00,96.00 l0.00,32.00 l 160.00,0.00 L 480.00,96.00 z" horiz-adv-x="544"  />
<glyph unicode="&#xe047;" d="M 206.92,16.00L 51.037,16.00 c 4.614,19.67, 14.259,41.192, 27.38,60.255c 20.728,30.113, 46.589,49.811, 72.82,55.463 c 11.053,2.382, 18.944,12.155, 18.944,23.462l0.00,17.146 c0.00,8.63-4.633,16.595-12.134,20.861c-29.74,16.917-48.957,54.133-48.957,94.813 c0.00,57.346, 37.193,104.00, 82.909,104.00c 45.717,0.00, 82.909-46.654, 82.909-104.00c0.00-4.599-0.258-9.15-0.737-13.636 c 15.016,8.696, 31.351,15.361, 48.629,19.638c-1.249,37.569-14.193,72.845-36.784,99.893C 261.184,423.626, 227.795,440.00, 192.00,440.00 s-69.184-16.374-94.017-46.105C 74.193,365.411, 61.091,327.803, 61.091,288.00c0.00-28.64, 6.872-56.533, 19.873-80.664 c 8.107-15.048, 18.355-28.238, 30.254-39.061c-26.997-12.995-51.993-35.246-72.339-64.805C 14.534,68.102,0.00,26.431,0.00-8.00 c0.00-13.255, 10.745-24.00, 24.00-24.00l 223.923,0.00 C 231.704-18.46, 217.81-2.232, 206.92,16.00zM 368.00,256.00c-79.529,0.00-144.00-64.471-144.00-144.00s 64.471-144.00, 144.00-144.00s 144.00,64.471, 144.00,144.00S 447.529,256.00, 368.00,256.00z M 428.273,199.144 L 368.00,138.87l-60.273,60.273C 324.852,211.025, 345.625,218.00, 368.00,218.00S 411.148,211.025, 428.273,199.144z M 262.00,112.00 c0.00,22.375, 6.975,43.148, 18.856,60.273L 341.13,112.00l-60.273-60.273C 268.975,68.852, 262.00,89.625, 262.00,112.00z M 307.727,24.856L 368.00,85.13 l 60.273-60.273C 411.148,12.975, 390.375,6.00, 368.00,6.00S 324.852,12.975, 307.727,24.856z M 455.144,51.727L 394.87,112.00l 60.273,60.273 C 467.025,155.148, 474.00,134.375, 474.00,112.00S 467.025,68.852, 455.144,51.727z"  />
<glyph unicode="&#xe048;" d="M 400.00,256.00c-79.529,0.00-144.00-64.471-144.00-144.00s 64.471-144.00, 144.00-144.00s 144.00,64.471, 144.00,144.00S 479.529,256.00, 400.00,256.00z M 480.00,165.131 L 426.869,112.00L 480.00,58.869L 480.00,32.00 l-26.869,0.00 L 400.00,85.131L 346.869,32.00L 320.00,32.00 l0.00,26.869 L 373.131,112.00L 320.00,165.131L 320.00,192.00 l 26.869,0.00 L 400.00,138.869 L 453.131,192.00L 480.00,192.00 L 480.00,165.131 zM 218.00,112.00 C 218.00,83.312 224.681,56.159 236.555,32.00 L 192.00,32.00 L 0.00,32.00 L 0.00,89.257 C 41.682,127.83 112.118,156.738 136.586,160.632 C 147.641,162.391 147.893,192.789 147.893,192.789 C 147.893,192.789 115.408,224.947 108.329,268.19 C 89.283,268.19 77.521,314.163 96.568,330.338 C 95.775,347.365 72.089,464.00 192.00,464.00 C 311.911,464.00 288.227,347.365 287.43,330.338 C 306.478,314.163 294.714,268.19 275.669,268.19 C 273.538,255.173 269.098,243.173 263.942,232.739 C 253.726,221.239 244.935,208.449 237.865,194.634 C 236.756,193.437 236.105,192.789 236.105,192.789 C 236.105,192.789 236.11,192.192 236.148,191.185 C 224.526,167.23 218.00,140.364 218.00,112.00 Z" horiz-adv-x="544"  />
<glyph unicode="&#xe049;" d="M 206.92,16.00L 51.037,16.00 c 4.614,19.67, 14.259,41.192, 27.38,60.255c 20.728,30.113, 46.589,49.811, 72.82,55.463 c 11.053,2.382, 18.944,12.155, 18.944,23.462l0.00,17.146 c0.00,8.63-4.633,16.595-12.134,20.861c-29.74,16.917-48.957,54.133-48.957,94.813 c0.00,57.346, 37.193,104.00, 82.909,104.00c 45.717,0.00, 82.909-46.654, 82.909-104.00c0.00-4.599-0.258-9.15-0.737-13.636 c 15.016,8.696, 31.351,15.361, 48.629,19.638c-1.249,37.569-14.193,72.845-36.784,99.893C 261.184,423.626, 227.795,440.00, 192.00,440.00 s-69.184-16.374-94.017-46.105C 74.193,365.411, 61.091,327.803, 61.091,288.00c0.00-28.64, 6.872-56.533, 19.873-80.664 c 8.107-15.048, 18.355-28.238, 30.254-39.061c-26.997-12.995-51.993-35.246-72.339-64.805C 14.534,68.102,0.00,26.431,0.00-8.00 c0.00-13.255, 10.745-24.00, 24.00-24.00l 223.923,0.00 C 231.704-18.46, 217.81-2.232, 206.92,16.00zM 368.00,256.00c-79.529,0.00-144.00-64.471-144.00-144.00s 64.471-144.00, 144.00-144.00s 144.00,64.471, 144.00,144.00S 447.529,256.00, 368.00,256.00z M 262.00,112.00 c0.00,58.448, 47.552,106.00, 106.00,106.00c 22.375,0.00, 43.148-6.975, 60.273-18.856L 280.856,51.727C 268.975,68.852, 262.00,89.625, 262.00,112.00z M 368.00,6.00 c-22.375,0.00-43.148,6.975-60.273,18.856l 147.417,147.417C 467.025,155.148, 474.00,134.375, 474.00,112.00C 474.00,53.552, 426.448,6.00, 368.00,6.00z"  />
<glyph unicode="&#xe04a;" d="M 218.00,112.00 C 218.00,83.312 224.681,56.159 236.555,32.00 L 192.00,32.00 L 0.00,32.00 L 0.00,89.257 C 41.682,127.83 112.118,156.738 136.586,160.632 C 147.641,162.391 147.893,192.789 147.893,192.789 C 147.893,192.789 115.408,224.947 108.329,268.19 C 89.283,268.19 77.521,314.163 96.568,330.338 C 95.775,347.365 72.089,464.00 192.00,464.00 C 311.911,464.00 288.227,347.365 287.43,330.338 C 306.478,314.163 294.714,268.19 275.669,268.19 C 273.538,255.173 269.098,243.173 263.942,232.739 C 253.726,221.239 244.935,208.449 237.865,194.634 C 236.756,193.437 236.105,192.789 236.105,192.789 C 236.105,192.789 236.11,192.192 236.148,191.185 C 224.526,167.23 218.00,140.364 218.00,112.00 ZM 400.00,256.00c-79.529,0.00-144.00-64.471-144.00-144.00s 64.471-144.00, 144.00-144.00s 144.00,64.471, 144.00,144.00S 479.529,256.00, 400.00,256.00z M 294.00,112.00 c0.00,58.448, 47.552,106.00, 106.00,106.00c 22.375,0.00, 43.149-6.975, 60.274-18.856L 312.856,51.726C 300.975,68.851, 294.00,89.625, 294.00,112.00z M 400.00,6.00 c-22.375,0.00-43.149,6.975-60.274,18.856l 147.418,147.418C 499.025,155.149, 506.00,134.375, 506.00,112.00C 506.00,53.552, 458.448,6.00, 400.00,6.00z" horiz-adv-x="544"  />
<glyph unicode="&#xe04b;" d="M 224.00,160.00L 288.00,160.00L 288.00,288.00L 400.00,288.00L 256.00,416.00L 112.00,288.00L 224.00,288.00 zM 320.00,220.976l0.00-16.622 c 74.569-8.786, 128.00-32.488, 128.00-60.354c0.00-35.347-85.961-64.00-192.00-64.00c-106.039,0.00-192.00,28.653-192.00,64.00 c0.00,27.865, 53.431,51.566, 128.00,60.354l0.00,16.622 C 81.585,210.318,0.00,172.732,0.00,128.00c0.00-53.02, 114.615-96.00, 256.00-96.00s 256.00,42.98, 256.00,96.00 C 512.00,172.732, 430.414,210.318, 320.00,220.976z"  />
<glyph unicode="&#xe04c;" d="M 240.00,128.00L0.00,128.00 l0.00-128.00 l 480.00,0.00 L 480.00,128.00 L 240.00,128.00 z M 448.00,64.00l-64.00,0.00 l0.00,32.00 l 64.00,0.00 L 448.00,64.00 zM 112.00,320.00 L 240.00,448.00 L 368.00,320.00 L 288.00,320.00 L 288.00,160.00 L 192.00,160.00 L 192.00,320.00 Z"  />
<glyph unicode="&#xe04d;" d="M0.00,32.00L 512.00,32.00L 512.00,0.00L0.00,0.00zM 512.00,96.00 L 512.00,64.00 L 0.00,64.00 L 0.00,96.00 L 64.00,224.00 L 192.00,224.00 L 192.00,160.00 L 320.00,160.00 L 320.00,224.00 L 448.00,224.00 ZM 112.00,320.00 L 256.00,464.00 L 400.00,320.00 L 288.00,320.00 L 288.00,192.00 L 224.00,192.00 L 224.00,320.00 Z"  />
<glyph unicode="&#xe04e;" d="M 448.00,128.00L 448.00,64.00L 64.00,64.00L 64.00,128.00L0.00,128.00L0.00,0.00L 512.00,0.00L 512.00,128.00 zM 128.00,256.00L 224.00,256.00L 224.00,96.00L 288.00,96.00L 288.00,256.00L 384.00,256.00L 256.00,448.00 z"  />
<glyph unicode="&#xe04f;" d="M 224.00,192.00L 288.00,192.00L 288.00,320.00L 384.00,320.00L 256.00,448.00L 128.00,320.00L 224.00,320.00 zM 320.00,264.00L 320.00,214.644L 466.533,160.00L 256.00,81.491L 45.467,160.00L 192.00,214.644L 192.00,264.00L0.00,192.00L0.00,64.00L 256.00-32.00L 512.00,64.00L 512.00,192.00 z"  />
<glyph unicode="&#xe050;" d="M 384.00,448.00l-64.00,0.00 c-52.935,0.00-96.00-43.065-96.00-96.00l0.00-96.00 L 24.00,256.00 c-13.20,0.00-24.00-10.80-24.00-24.00l0.00-240.00 c0.00-13.20, 10.80-24.00, 24.00-24.00l 272.00,0.00 c 13.20,0.00, 24.00,10.80, 24.00,24.00L 320.00,232.00 c0.00,13.20-10.80,24.00-24.00,24.00l-8.00,0.00 l0.00,96.00 c0.00,17.645, 14.355,32.00, 32.00,32.00l 64.00,0.00 c 17.645,0.00, 32.00-14.355, 32.00-32.00l0.00-96.00 l 64.00,0.00 l0.00,96.00 C 480.00,404.935, 436.935,448.00, 384.00,448.00z M 192.00,32.00l-64.00,0.00 l 13.92,69.60C 133.516,107.366, 128.00,117.037, 128.00,128.00c0.00,17.673, 14.327,32.00, 32.00,32.00c 17.673,0.00, 32.00-14.327, 32.00-32.00 c0.00-10.963-5.516-20.634-13.92-26.40L 192.00,32.00z"  />
<glyph unicode="&#xe051;" d="M 384.00,448.00 C 436.935,448.00 480.00,404.935 480.00,352.00 L 480.00,256.00 L 416.00,256.00 L 416.00,352.00 C 416.00,369.645 401.645,384.00 384.00,384.00 L 320.00,384.00 C 302.355,384.00 288.00,369.645 288.00,352.00 L 288.00,256.00 L 296.00,256.00 C 309.20,256.00 320.00,245.20 320.00,232.00 L 320.00-8.00 C 320.00-21.20 309.20-32.00 296.00-32.00 L 24.00-32.00 C 10.80-32.00 0.00-21.20 0.00-8.00 L 0.00,232.00 C 0.00,245.20 10.80,256.00 24.00,256.00 L 224.00,256.00 L 224.00,352.00 C 224.00,404.935 267.065,448.00 320.00,448.00 L 384.00,448.00 Z"  />
<glyph unicode="&#xe052;" d="M 380.931-32.00C 437.794,71.016, 447.375,228.153, 224.00,222.912L 224.00,96.00 L 32.00,288.00L 224.00,480.00l0.00-124.186 C 491.481,362.785, 521.285,119.707, 380.931-32.00z"  />
<glyph unicode="&#xe053;" d="M 256.00,448.00c-70.692,0.00-134.688-28.66-181.016-74.989L0.00,448.00l0.00-192.00 l 192.00,0.00 l-71.766,71.761C 154.982,362.507, 202.98,384.00, 256.00,384.00 c 106.034,0.00, 192.00-85.962, 192.00-192.00c0.00-57.348-25.146-108.818-65.009-144.00l 42.333-48.00C 478.475,46.908, 512.00,115.538, 512.00,192.00 C 512.00,333.385, 397.385,448.00, 256.00,448.00z"  />
<glyph unicode="&#xe054;" d="M 352.00,448.00 L 416.00,448.00 L 416.00,240.00 C 416.00,160.471 344.366,96.00 256.00,96.00 C 167.635,96.00 96.00,160.471 96.00,240.00 L 96.00,448.00 L 160.00,448.00 L 160.00,240.00 C 160.00,219.917 169.119,200.648 185.677,185.747 C 204.125,169.145 229.10,160.00 256.00,160.00 C 282.90,160.00 307.875,169.145 326.323,185.747 C 342.881,200.648 352.00,219.917 352.00,240.00 L 352.00,448.00 ZM 96.00,64.00L 416.00,64.00L 416.00,0.00L 96.00,0.00z"  />
<glyph unicode="&#xe055;" d="M 287.933,446.02 C 414.246,430.302 512.00,322.57 512.00,192.00 L 503.418,192.00 C 492.351,211.124 471.687,224.00 448.001,224.00 C 424.316,224.00 403.652,211.124 392.585,192.00 L 375.417,192.00 C 364.35,211.124 343.686,224.00 320.001,224.00 C 308.339,224.00 297.413,220.873 288.001,215.421 L 288.001,48.00 C 288.001,3.888 252.113-32.00 208.001-32.00 C 163.889-32.00 128.001,3.888 128.001,48.00 C 128.001,65.673 142.328,80.00 160.001,80.00 C 177.674,80.00 192.001,65.673 192.001,48.00 C 192.001,39.178 199.179,32.00 208.001,32.00 C 216.823,32.00 224.001,39.178 224.001,48.00 L 224.001,215.422 C 214.588,220.873 203.663,224.00 192.001,224.00 C 168.315,224.00 147.651,211.124 136.584,192.00 L 119.417,192.00 C 108.349,211.124 87.685,224.00 64.00,224.00 C 40.315,224.00 19.651,211.124 8.583,192.00 L 0.00,192.00 C 0.00,322.57 97.754,430.302 224.067,446.02 C 224.027,446.675 224.00,447.334 224.00,448.00 C 224.00,465.673 238.327,480.00 256.00,480.00 C 273.673,480.00 288.00,465.673 288.00,448.00 C 288.00,447.334 287.973,446.675 287.933,446.02 Z"  />
<glyph unicode="&#xe056;" d="M 256.00,480.00C 114.615,480.00,0.00,365.385,0.00,224.00s 114.615-256.00, 256.00-256.00s 256.00,114.615, 256.00,256.00S 397.385,480.00, 256.00,480.00z M 403.121,299.456 c 0.146-3.254, 0.221-6.528, 0.221-9.819c0.00-100.311-76.354-215.982-215.979-215.982c-42.868,0.00-82.768,12.568-116.363,34.107 c 5.938-0.704, 11.981-1.063, 18.108-1.063c 35.565,0.00, 68.295,12.138, 94.275,32.497c-33.217,0.61-61.25,22.561-70.912,52.716 c 4.637-0.884, 9.392-1.361, 14.283-1.361c 6.923,0.00, 13.629,0.928, 19.999,2.662c-34.726,6.976-60.893,37.656-60.893,74.434 c0.00,0.32,0.00,0.639, 0.008,0.955c 10.235-5.685, 21.939-9.10, 34.382-9.494c-20.37,13.611-33.77,36.846-33.77,63.184 c0.00,13.911, 3.744,26.952, 10.278,38.162c 37.439-45.927, 93.374-76.146, 156.462-79.314c-1.294,5.559-1.965,11.351-1.965,17.302 c0.00,41.92, 33.99,75.906, 75.909,75.906c 21.833,0.00, 41.562-9.218, 55.409-23.97c 17.29,3.404, 33.537,9.721, 48.206,18.42 c-5.668-17.727-17.705-32.603-33.376-41.997c 15.355,1.834, 29.984,5.916, 43.597,11.952 C 430.825,323.529, 417.955,310.16, 403.121,299.456z"  />
<glyph unicode="&#xe057;" d="M 426.671,480.00L 85.343,480.00 C 38.406,480.00,0.00,441.595,0.00,394.655l0.00-341.311 C0.00,6.375, 38.406-32.00, 85.343-32.00l 341.328,0.00 C 473.609-32.00, 512.00,6.375, 512.00,53.345L 512.00,394.655 C 512.00,441.595, 473.609,480.00, 426.671,480.00z M 419.026,309.083 c 0.164-3.671, 0.245-7.364, 0.245-11.074c0.00-113.107-84.608-243.534-239.329-243.534c-47.502,0.00-91.717,14.174-128.943,38.459 c 6.58-0.794, 13.276-1.197, 20.065-1.197c 39.411,0.00, 75.679,13.685, 104.467,36.641c-36.808,0.69-67.872,25.438-78.577,59.441 c 5.137-1.00, 10.406-1.537, 15.826-1.537c 7.672,0.00, 15.103,1.048, 22.16,3.004c-38.48,7.866-67.475,42.458-67.475,83.928 c0.00,0.361,0.00,0.719, 0.008,1.076c 11.34-6.41, 24.312-10.26, 38.10-10.705c-22.571,15.349-37.421,41.546-37.421,71.244 c0.00,15.685, 4.147,30.389, 11.389,43.029c 41.487-51.785, 103.468-85.86, 173.377-89.431c-1.435,6.266-2.179,12.798-2.179,19.507 c0.00,47.269, 37.663,85.59, 84.115,85.59c 24.195,0.00, 46.059-10.393, 61.401-27.029c 19.16,3.838, 37.162,10.96, 53.416,20.771 c-6.281-19.988-19.617-36.761-36.983-47.355c 17.013,2.069, 33.226,6.67, 48.31,13.477C 449.725,336.226, 435.463,321.15, 419.026,309.083 z"  />
<glyph unicode="&#xe058;" d="M 512.00,382.791c-18.838-8.354-39.082-14.001-60.33-16.54c 21.686,13.00, 38.343,33.585, 46.186,58.115 c-20.298-12.039-42.778-20.78-66.705-25.49c-19.16,20.415-46.461,33.17-76.673,33.17c-58.011,0.00-105.044-47.029-105.044-105.039 c0.00-8.233, 0.929-16.25, 2.72-23.939c-87.30,4.382-164.701,46.20-216.509,109.753c-9.042-15.514-14.223-33.558-14.223-52.809 c0.00-36.444, 18.544-68.596, 46.73-87.433c-17.219,0.546-33.416,5.271-47.577,13.139c-0.01-0.438-0.01-0.878-0.01-1.321 c0.00-50.894, 36.209-93.348, 84.261-103.00c-8.813-2.40-18.094-3.686-27.674-3.686c-6.769,0.00-13.349,0.66-19.764,1.886 c 13.368-41.73, 52.16-72.103, 98.126-72.948c-35.95-28.175-81.243-44.967-130.458-44.967c-8.479,0.00-16.84,0.497-25.058,1.47 c 46.486-29.805, 101.701-47.197, 161.021-47.197c 193.211,0.00, 298.868,160.062, 298.868,298.872c0.00,4.554-0.103,9.084-0.305,13.59 C 480.11,343.227, 497.918,361.727, 512.00,382.791z"  />
<glyph unicode="&#xe059;" d="M 490.594,335.946c-44.404,6.384-91.691,11.008-141.038,13.61L 432.00,432.00l-32.00,32.00L 287.721,351.722 C 277.218,351.906, 266.643,352.00, 256.00,352.00l0.00,0.00L 128.00,480.00L 96.00,448.00l 97.098-97.098c-60.461-2.121-118.169-7.262-171.693-14.956 C 7.639,282.083,0.00,222.57,0.00,160.00s 7.639-122.083, 21.402-175.945C 93.223-26.271, 172.572-32.00, 256.00-32.00 c 83.428,0.00, 162.775,5.729, 234.594,16.055C 504.361,37.917, 512.00,97.43, 512.00,160.00S 504.361,282.083, 490.594,335.946z M 431.946,42.703 C 378.081,35.82, 318.571,32.00, 256.00,32.00c-62.571,0.00-122.083,3.82-175.946,10.703C 69.73,78.611, 64.00,118.286, 64.00,160.00 c0.00,41.715, 5.729,81.39, 16.054,117.298C 133.917,284.181, 193.429,288.00, 256.00,288.00c 62.568,0.00, 122.081-3.819, 175.943-10.702 C 442.271,241.39, 448.00,201.715, 448.00,160.00C 448.00,118.286, 442.271,78.611, 431.946,42.703z"  />
<glyph unicode="&#xe05a;" d="M 283.828,111.542c-40.972-19.059-79.079-18.858-104.67-17.01c-30.526,2.205-55.079,10.562-65.871,17.866 c-6.65,4.503-15.692,2.761-20.195-3.891c-4.502-6.651-2.76-15.693, 3.891-20.195c 17.349-11.743, 48.034-20.477, 80.081-22.79 c 5.433-0.392, 11.399-0.639, 17.823-0.639c 27.891,0.00, 63.313,2.658, 101.21,20.285c 7.282,3.389, 10.439,12.037, 7.052,19.32 C 299.761,111.771, 291.111,114.924, 283.828,111.542zM 445.474,133.092c 1.393,126.344, 14.381,365.103-227.485,345.806C-20.811,459.677, 42.507,207.414, 38.948,122.923 C 35.794,78.23, 20.959,23.599,0.00-32.00l 64.55,0.00 c 6.633,23.561, 11.512,46.86, 13.616,69.075c 3.891-2.714, 8.054-5.337, 12.497-7.85 c 7.229-4.259, 13.442-9.922, 20.02-15.917c 15.372-14.009, 32.795-29.887, 66.856-31.876c 2.286-0.131, 4.587-0.197, 6.838-0.197 c 34.448,0.00, 58.007,15.077, 76.939,27.191c 9.07,5.806, 16.909,10.82, 24.282,13.226c 20.955,6.56, 39.266,17.148, 52.952,30.626 c 2.138,2.104, 4.121,4.269, 5.981,6.474c 7.623-27.939, 18.059-59.379, 29.644-90.752L 512.00-32.00 C 478.913,19.112, 444.782,69.187, 445.474,133.092z M 62.055,201.824c0.00,0.008,0.00,0.015-0.001,0.023 c-2.373,41.231, 17.355,75.916, 44.063,77.468c 26.706,1.553, 50.28-30.614, 52.652-71.846c0.00-0.007, 0.002-0.015, 0.002-0.022 c 0.128-2.223, 0.184-4.423, 0.185-6.603c-8.462-2.128-16.096-5.218-22.936-8.815c-0.026,0.306-0.046,0.608-0.076,0.915 c0.00,0.004,0.00,0.009,0.00,0.013c-2.285,23.405-14.786,41.08-27.926,39.479c-13.14-1.602-21.94-21.875-19.656-45.279 c0.00-0.005, 0.002-0.009, 0.002-0.013c 0.996-10.204, 3.934-19.318, 8.021-26.222c-1.017-0.802-3.892-2.906-7.203-5.328 c-2.485-1.817-5.51-4.029-9.157-6.715C 70.084,161.926, 63.272,180.669, 62.055,201.824z M 332.63,99.911 c-0.95-21.793-29.454-42.296-55.791-50.522l-0.148-0.048c-10.95-3.551-20.714-9.80-31.052-16.415 c-17.366-11.112-35.323-22.604-61.261-22.604c-1.702,0.00-3.447,0.052-5.163,0.148c-23.758,1.389-34.871,11.516-48.94,24.338 c-7.421,6.763-15.095,13.757-24.988,19.562l-0.212,0.122c-21.353,12.052-34.606,27.041-35.454,40.097 c-0.421,6.49, 2.469,12.109, 8.591,16.70c 13.318,9.986, 22.239,16.511, 28.142,20.829c 6.555,4.794, 8.534,6.24, 10.00,7.632 c 1.048,0.993, 2.182,2.094, 3.402,3.281c 12.223,11.887, 32.68,31.781, 64.075,31.781c 19.202,0.00, 40.449-7.40, 63.085-21.951 c 10.662-6.939, 19.941-10.143, 31.69-14.20c 8.078-2.789, 17.234-5.951, 29.496-11.202l 0.198-0.082 C 319.74,122.675, 333.248,114.095, 332.63,99.911z M 326.323,151.097c-2.20,1.107-4.487,2.16-6.872,3.143 c-11.053,4.728-19.916,7.937-27.267,10.499c 4.058,7.947, 6.58,17.86, 6.812,28.621c0.00,0.005,0.00,0.011,0.00,0.015 c 0.563,26.187-12.644,47.448-29.498,47.488c-16.855,0.039-30.975-21.157-31.538-47.343c0.00-0.005,0.00-0.009,0.00-0.014 c-0.019-0.857-0.021-1.708-0.01-2.555c-10.381,4.776-20.59,8.245-30.583,10.38c-0.046,0.984-0.102,1.966-0.122,2.96 c0.00,0.008,0.00,0.018,0.00,0.025c-0.969,47.706, 28.301,87.195, 65.377,88.201c 37.075,1.007, 67.914-36.85, 68.886-84.555 c0.00-0.009,0.00-0.019,0.00-0.026C 341.945,186.363, 336.178,166.503, 326.323,151.097z"  />
<glyph unicode="&#xe05b;" d="M 426.69,480.00L 85.344,480.00 C 38.405,480.00, 0.001,441.593, 0.001,394.657l0.00-341.313 C 0.001,6.375, 38.405-32.00, 85.344-32.00L 426.69-32.00 C 473.625-32.00, 512.00,6.375, 512.00,53.344L 512.00,394.658 C 511.996,441.593, 473.621,480.00, 426.69,480.00z M 365.858,67.656 c-15.076-7.094-28.764-12.094-41.00-14.969c-12.248-2.845-25.48-4.279-39.701-4.279c-16.156,0.00-25.688,2.029-38.094,6.094 c-12.404,4.094-23.00,9.936-31.75,17.436c-8.779,7.564-14.843,15.599-18.233,24.097c-3.392,8.502-5.078,20.846-5.078,37.002L 192.002,256.938 l-47.998,0.00 l0.00,50.033 c 13.872,4.50, 29.968,10.967, 39.842,19.375c 9.92,8.436, 17.859,18.529, 23.842,30.342 c 6.002,11.783, 10.125,26.813, 12.376,45.033l 50.25,0.00 L 270.314,320.00 L 352.00,320.00 l0.00-63.063 l-81.689,0.00 l0.00-90.594 c0.00-20.50-0.264-32.313, 1.908-38.125 c 2.156-5.78, 7.563-11.78, 13.451-15.25c 7.828-4.688, 16.752-7.03, 26.813-7.03c 17.893,0.00, 35.689,5.813, 53.375,17.438L 365.858,67.656 L 365.858,67.656z"  />
<glyph unicode="&#xe05c;" d="M 288.016,256.00 L 288.015,138.908 C 288.015,109.199 287.63,92.08 290.78,83.658 C 293.905,75.281 301.739,66.585 310.275,61.557 C 321.617,54.763 334.546,51.369 349.129,51.369 C 375.056,51.369 390.368,54.793 416.00,71.639 L 416.00-5.333 L 416.00-5.333 C 394.15-15.609 375.067-21.63 357.338-25.794 C 339.588-29.915 320.408-31.997 299.806-31.997 C 276.392-31.997 262.578-29.054 244.601-23.169 C 226.622-17.235 211.271-8.766 198.591,2.101 C 185.866,13.062 177.08,24.705 172.167,37.017 C 167.254,49.335 164.809,67.224 164.809,90.639 L 164.809,270.189 L 96.096,270.189 L 96.096,342.692 C 116.20,349.213 138.678,358.586 152.986,370.768 C 167.363,382.993 178.869,397.621 187.539,414.74 C 196.235,431.813 202.213,453.596 205.475,479.998 L 288.017,479.998 L 288.016,352.00 L 416.00,352.00 L 416.00,256.00 L 288.016,256.00 Z"  />
<glyph unicode="&#xe05d;" d="M 512.00,192.00l-64.00,128.00l-96.00,0.00 L 352.00,384.00 c0.00,17.60-14.40,32.00-32.00,32.00L 32.00,416.00 C 14.40,416.00,0.00,401.60,0.00,384.00l0.00-256.00 l 32.00-32.00l 40.583,0.00 C 67.134,86.584, 64.00,75.661, 64.00,64.00 c0.00-35.346, 28.654-64.00, 64.00-64.00s 64.00,28.654, 64.00,64.00c0.00,11.661-3.134,22.584-8.583,32.00l 177.167,0.00 c-5.449-9.416-8.584-20.339-8.584-32.00 c0.00-35.346, 28.654-64.00, 64.00-64.00s 64.00,28.654, 64.00,64.00c0.00,11.661-3.135,22.584-8.584,32.00L 512.00,96.00 L 512.00,192.00 z M 352.00,192.00l0.00,80.00 l 66.334,0.00 l 40.00-80.00L 352.00,192.00 z"  />
<glyph unicode="&#xe05e;" d="M 416.00,384.00L 416.00,448.00 L 96.00,448.00 l0.00-64.00 L0.00,384.00 l0.00-32.00 l0.00-32.00 c0.00-53.019, 42.979-96.00, 96.00-96.00c 10.038,0.00, 19.715,1.543, 28.81,4.401 c 23.087-33.004, 58.304-56.898, 99.19-65.198L 224.00,64.00 l-32.00,0.00 c-35.347,0.00-64.00-28.653-64.00-64.00l 256.00,0.00 c0.00,35.347-28.653,64.00-64.00,64.00l-32.00,0.00 l0.00,99.203 c 40.886,8.30, 76.103,32.193, 99.19,65.198C 396.285,225.543, 405.962,224.00, 416.00,224.00c 53.021,0.00, 96.00,42.981, 96.00,96.00l0.00,32.00 L 512.00,384.00 L 416.00,384.00 z M 96.00,262.00 c-31.981,0.00-58.00,26.019-58.00,58.00l0.00,32.00 l 58.00,0.00 l0.00-32.00 c0.00-20.093, 3.715-39.316, 10.477-57.034C 103.076,262.343, 99.578,262.00, 96.00,262.00z M 474.00,320.00 c0.00-31.981-26.019-58.00-58.00-58.00c-3.578,0.00-7.076,0.343-10.477,0.966C 412.285,280.684, 416.00,299.907, 416.00,320.00l0.00,32.00 l 58.00,0.00 L 474.00,320.00 z"  />
<glyph unicode="&#xe05f;" d="M 512.00,448.00c-32.00,0.00-160.00,0.00-160.00,0.00l0.00-64.00 L 160.00,384.00 L 160.00,448.00 c0.00,0.00-128.00,0.00-160.00,0.00c0.00-160.00, 128.00-347.188, 224.00-376.00l0.00-40.00 c-32.00,0.00-64.00-16.00-64.00-32.00l 192.00,0.00 c0.00,16.00-32.00,32.00-64.00,32.00 l0.00,40.00 C 384.00,100.812, 512.00,288.00, 512.00,448.00z M 383.85,366.773L 384.00,384.00L 384.00,416.00 l 94.227,0.00 c-2.787-25.839-8.855-53.128-18.14-81.495 c-12.272-37.499-30.058-75.91-51.433-111.082c-20.559-33.826-43.896-63.859-67.488-86.852c-2.266-2.208-4.521-4.336-6.765-6.391 C 376.819,215.238, 382.961,321.678, 383.85,366.773z M 170.834,136.572c-23.593,22.992-46.93,53.025-67.488,86.852 c-21.375,35.172-39.161,73.583-51.433,111.082C 42.629,362.872, 36.56,390.161, 33.773,416.00L 128.00,416.00 l0.00-32.00 l 0.15-17.227 c 0.889-45.096, 7.031-151.535, 49.448-236.592C 175.355,132.236, 173.099,134.364, 170.834,136.572z"  />
<glyph unicode="&#xe060;" d="M 416.00,384.00L 416.00,448.00 L 96.00,448.00 l0.00-64.00 L0.00,384.00 l0.00-32.00 l0.00-32.00 c0.00-53.019, 42.979-96.00, 96.00-96.00c 10.038,0.00, 19.715,1.543, 28.81,4.401 c 23.087-33.004, 58.304-56.898, 99.19-65.198L 224.00,64.00 l-32.00,0.00 c-35.347,0.00-64.00-28.653-64.00-64.00l 256.00,0.00 c0.00,35.347-28.653,64.00-64.00,64.00l-32.00,0.00 l0.00,99.203 c 40.886,8.30, 76.103,32.193, 99.19,65.198C 396.285,225.543, 405.962,224.00, 416.00,224.00c 53.021,0.00, 96.00,42.981, 96.00,96.00l0.00,32.00 L 512.00,384.00 L 416.00,384.00 z M 96.00,262.00 c-31.981,0.00-58.00,26.019-58.00,58.00l0.00,32.00 l 58.00,0.00 l0.00-32.00 c0.00-20.093, 3.715-39.316, 10.477-57.034C 103.076,262.343, 99.578,262.00, 96.00,262.00z M 304.707,294.403 l 30.51-93.208L 256.00,259.016l-79.216-57.821l 30.509,93.208l-79.468,57.472l 98.072-0.214L 256.00,445.00l 30.104-93.339l 98.071,0.214 L 304.707,294.403z M 474.00,320.00c0.00-31.981-26.019-58.00-58.00-58.00c-3.578,0.00-7.076,0.343-10.477,0.966C 412.285,280.684, 416.00,299.907, 416.00,320.00l0.00,32.00 l 58.00,0.00 L 474.00,320.00 z"  />
<glyph unicode="&#xe061;" d="M 488.00,96.00l-8.00,0.00 L 480.00,200.00 c0.00,30.878-25.121,56.00-56.00,56.00L 288.00,256.00 l0.00,64.00 l 8.00,0.00 c 13.20,0.00, 24.00,10.80, 24.00,24.00L 320.00,424.00 c0.00,13.20-10.80,24.00-24.00,24.00l-80.00,0.00 c-13.20,0.00-24.00-10.80-24.00-24.00l0.00-80.00 c0.00-13.20, 10.80-24.00, 24.00-24.00l 8.00,0.00 l0.00-64.00 L 88.00,256.00 c-30.878,0.00-56.00-25.122-56.00-56.00l0.00-104.00 l-8.00,0.00 c-13.20,0.00-24.00-10.80-24.00-24.00l0.00-80.00 c0.00-13.20, 10.80-24.00, 24.00-24.00l 80.00,0.00 c 13.20,0.00, 24.00,10.80, 24.00,24.00l0.00,80.00 c0.00,13.20-10.80,24.00-24.00,24.00l-8.00,0.00 l0.00,96.00 l 128.00,0.00 l0.00-96.00 l-8.00,0.00 c-13.20,0.00-24.00-10.80-24.00-24.00l0.00-80.00 c0.00-13.20, 10.80-24.00, 24.00-24.00l 80.00,0.00 c 13.20,0.00, 24.00,10.80, 24.00,24.00l0.00,80.00 c0.00,13.20-10.80,24.00-24.00,24.00l-8.00,0.00 l0.00,96.00 l 128.00,0.00 l0.00-96.00 l-8.00,0.00 c-13.20,0.00-24.00-10.80-24.00-24.00l0.00-80.00 c0.00-13.20, 10.80-24.00, 24.00-24.00l 80.00,0.00 c 13.20,0.00, 24.00,10.80, 24.00,24.00l0.00,80.00 C 512.00,85.20, 501.20,96.00, 488.00,96.00z M 96.00,0.00L 32.00,0.00 l0.00,64.00 l 64.00,0.00 L 96.00,0.00 z M 288.00,0.00l-64.00,0.00 l0.00,64.00 l 64.00,0.00 L 288.00,0.00 z M 224.00,352.00L 224.00,416.00 l 64.00,0.00 l0.00-64.00 L 224.00,352.00 z M 480.00,0.00l-64.00,0.00 l0.00,64.00 l 64.00,0.00 L 480.00,0.00 z"  />
<glyph unicode="&#xe062;" d="M 488.00,96.00l-8.00,0.00 L 480.00,200.00 c0.00,30.878-25.121,56.00-56.00,56.00L 288.00,256.00 l0.00,64.00 l 8.00,0.00 c 13.20,0.00, 24.00,10.80, 24.00,24.00L 320.00,424.00 c0.00,13.20-10.80,24.00-24.00,24.00l-80.00,0.00 c-13.20,0.00-24.00-10.80-24.00-24.00l0.00-80.00 c0.00-13.20, 10.80-24.00, 24.00-24.00l 8.00,0.00 l0.00-64.00 L 88.00,256.00 c-30.878,0.00-56.00-25.122-56.00-56.00l0.00-104.00 l-8.00,0.00 c-13.20,0.00-24.00-10.80-24.00-24.00l0.00-80.00 c0.00-13.20, 10.80-24.00, 24.00-24.00l 80.00,0.00 c 13.20,0.00, 24.00,10.80, 24.00,24.00l0.00,80.00 c0.00,13.20-10.80,24.00-24.00,24.00l-8.00,0.00 l0.00,96.00 l 128.00,0.00 l0.00-96.00 l-8.00,0.00 c-13.20,0.00-24.00-10.80-24.00-24.00l0.00-80.00 c0.00-13.20, 10.80-24.00, 24.00-24.00l 80.00,0.00 c 13.20,0.00, 24.00,10.80, 24.00,24.00l0.00,80.00 c0.00,13.20-10.80,24.00-24.00,24.00l-8.00,0.00 l0.00,96.00 l 128.00,0.00 l0.00-96.00 l-8.00,0.00 c-13.20,0.00-24.00-10.80-24.00-24.00l0.00-80.00 c0.00-13.20, 10.80-24.00, 24.00-24.00l 80.00,0.00 c 13.20,0.00, 24.00,10.80, 24.00,24.00l0.00,80.00 C 512.00,85.20, 501.20,96.00, 488.00,96.00z"  />
<glyph unicode="&#xe063;" d="M 488.00,128.00l-50.411,0.00 L 320.00,323.98L 320.00,424.00 c0.00,13.20-10.80,24.00-24.00,24.00l-80.00,0.00 c-13.20,0.00-24.00-10.80-24.00-24.00l0.00-100.019 L 74.412,128.00L 24.00,128.00 c-13.20,0.00-24.00-10.80-24.00-24.00l0.00-80.00 c0.00-13.20, 10.80-24.00, 24.00-24.00l 80.00,0.00 c 13.20,0.00, 24.00,10.80, 24.00,24.00L 128.00,124.02 L 245.588,320.00l 20.823,0.00 L 384.00,124.02L 384.00,24.00 c0.00-13.20, 10.80-24.00, 24.00-24.00l 80.00,0.00 c 13.20,0.00, 24.00,10.80, 24.00,24.00l0.00,80.00 C 512.00,117.20, 501.20,128.00, 488.00,128.00z"  />
<glyph unicode="&#xe064;" d="M 352.00,176.00 L 352.00,288.00 L 0.00,288.00 L 0.00,352.00 L 352.00,352.00 L 352.00,464.00 L 496.00,320.00 L 352.00,176.00 Z M 160.00,160.00 L 512.00,160.00 L 512.00,96.00 L 160.00,96.00 L 160.00-16.00 L 16.00,128.00 L 160.00,272.00 L 160.00,160.00 Z"  />
<glyph unicode="&#xe065;" d="M 384.00,288.00 L 32.00,288.00 L 32.00,352.00 L 384.00,352.00 L 384.00,432.00 L 496.00,320.00 L 384.00,208.00 ZM 128.00,160.00 L 480.00,160.00 L 480.00,96.00 L 128.00,96.00 L 128.00,16.00 L 16.00,128.00 L 128.00,240.00 Z"  />
<glyph unicode="&#xe066;" d="M 246.278,127.723 L 319.723,54.278 L 261.385-20.634 C 250.694-34.615 231.764-35.871 219.319-23.427 L 168.574,27.319 C 156.129,39.763 157.386,58.693 171.366,69.384 L 246.278,127.723 ZM 636.756,348.754L 560.00,271.999l-96.00,96.00l 76.756,76.755c-9.244,2.122-18.869,3.245-28.756,3.245c-70.692,0.00-128.00-57.308-128.00-128.00 c0.00-25.498, 7.458-49.253, 20.309-69.208l-71.454-55.646L 224.00,303.999l 144.00,144.00L 208.00,447.999 l-71.029-71.029l-7.03,7.029L 96.00,383.999 l0.00-33.941 l 7.029-7.029 L0.00,239.999l 80.00-80.00l 96.00,96.00l 169.116-169.115L 464.00-31.999l 48.00,47.998L 387.146,140.854l 55.646,71.454 c 19.954-12.851, 43.71-20.309, 69.208-20.309c 70.692,0.00, 128.00,57.308, 128.00,128.00C 640.00,329.886, 638.877,339.511, 636.756,348.754z" horiz-adv-x="640"  />
<glyph unicode="&#xe067;" d="M 256.00,480.00C 114.615,480.00,0.00,365.385,0.00,224.00s 114.615-256.00, 256.00-256.00s 256.00,114.615, 256.00,256.00S 397.385,480.00, 256.00,480.00z M 160.00,352.00 c 17.673,0.00, 32.00-14.327, 32.00-32.00s-14.327-32.00-32.00-32.00s-32.00,14.327-32.00,32.00S 142.327,352.00, 160.00,352.00z M 384.00,160.00l-32.00,0.00 l0.00-48.00 c0.00-26.51-21.49-48.00-48.00-48.00 s-48.00,21.49-48.00,48.00l0.00,48.00 L 128.00,160.00 l0.00,32.00 l 256.00,0.00 L 384.00,160.00 z M 352.00,288.00c-17.673,0.00-32.00,14.327-32.00,32.00s 14.327,32.00, 32.00,32.00s 32.00-14.327, 32.00-32.00S 369.673,288.00, 352.00,288.00z"  />
<glyph unicode="&#xe068;" d="M 256.00-32.00c 141.385,0.00, 256.00,114.615, 256.00,256.00S 397.385,480.00, 256.00,480.00S0.00,365.385,0.00,224.00S 114.615-32.00, 256.00-32.00z M 256.00,432.00 c 114.875,0.00, 208.00-93.125, 208.00-208.00s-93.125-208.00-208.00-208.00S 48.00,109.125, 48.00,224.00S 141.125,432.00, 256.00,432.00zM 128.00,320.00 C 128.00,337.673 142.327,352.00 160.00,352.00 C 177.673,352.00 192.00,337.673 192.00,320.00 C 192.00,302.327 177.673,288.00 160.00,288.00 C 142.327,288.00 128.00,302.327 128.00,320.00 Z M 320.00,320.00 C 320.00,337.673 334.327,352.00 352.00,352.00 C 369.673,352.00 384.00,337.673 384.00,320.00 C 384.00,302.327 369.673,288.00 352.00,288.00 C 334.327,288.00 320.00,302.327 320.00,320.00 ZM 384.00,192.00 L 384.00,160.00 L 352.00,160.00 L 352.00,112.00 C 352.00,85.49 330.51,64.00 304.00,64.00 C 277.49,64.00 256.00,85.49 256.00,112.00 L 256.00,160.00 L 128.00,160.00 L 128.00,192.00 L 384.00,192.00 Z"  />
<glyph unicode="&#xe069;" d="M 287.998,320.00L 351.997,256.001L 224.00,128.004L 160.001,192.003zM 500.763,331.248l-36.758,36.758l-16.004-16.004c-8.189-8.19-19.505-13.255-32.00-13.255 c-24.994,0.00-45.257,20.261-45.257,45.255c0.00,12.501, 5.07,23.819, 13.267,32.009l 15.994,15.993l-36.759,36.758 c-14.984,14.984-39.504,14.984-54.488,0.00L 11.238,171.243c-14.983-14.984-14.983-39.505,0.00-54.488l 36.76-36.759l 15.981,15.982 c 8.191,8.203, 19.515,13.276, 32.022,13.276c 24.994,0.00, 45.255-20.262, 45.255-45.255c0.00-12.503-5.07-23.82-13.267-32.011l-15.992-15.993 l 36.758-36.759c 14.983-14.983, 39.504-14.983, 54.488,0.00l 297.52,297.52C 515.745,291.744, 515.745,316.264, 500.763,331.248z M 224.001,64.002l-128.00,128.00l 192.00,192.00l 128.00-128.00L 224.001,64.002z"  />
<glyph unicode="&#xe06a;" d="M 48.00,256.00 C 11.50,256.00 32.00,352.00 64.00,352.00 C 48.00,352.00 64.00,432.00 96.00,432.00 C 96.00,464.00 128.00,480.00 160.00,480.00 C 295.176,480.00 247.632,446.175 384.00,432.00 L 384.00,176.00 C 263.539,139.866 144.00,49.288 144.00-32.00 C 117.50-32.00 48.00,0.00 144.00,160.00 C 144.00,160.00 64.00,160.00 48.00,160.00 C 0.00,160.00 16.00,256.00 48.00,256.00 ZM 416.00,176.00 L 416.00,432.00 L 384.00,432.00 L 384.00,448.00 L 448.00,448.00 C 465.60,448.00 480.00,426.40 480.00,400.00 L 480.00,208.00 C 480.00,181.60 465.60,160.00 448.00,160.00 L 384.00,160.00 L 384.00,176.00 L 416.00,176.00 Z"  />
<glyph unicode="&#xe06b;" d="M 464.00,192.00 C 500.50,192.00 480.00,96.00 448.00,96.00 C 464.00,96.00 448.00,16.00 416.00,16.00 C 416.00-16.00 384.00-32.00 352.00-32.00 C 216.824-32.00 264.368,1.825 128.00,16.00 L 128.00,272.00 C 248.461,308.134 368.00,398.712 368.00,480.00 C 394.50,480.00 464.00,448.00 368.00,288.00 C 368.00,288.00 448.00,288.00 464.00,288.00 C 512.00,288.00 496.00,192.00 464.00,192.00 ZM 96.00,272.00 L 96.00,16.00 L 128.00,16.00 L 128.00,0.00 L 64.00,0.00 C 46.40,0.00 32.00,21.60 32.00,48.00 L 32.00,240.00 C 32.00,266.40 46.40,288.00 64.00,288.00 L 128.00,288.00 L 128.00,272.00 L 96.00,272.00 Z"  />
<glyph unicode="&#xe06c;" d="M 496.00,144.00c0.00,16.458-8.978,30.977-22.654,39.624C 477.568,190.77, 480.00,199.10, 480.00,208.00c0.00,26.51-21.49,48.00-48.00,48.00l-93.904,0.00 C 349.324,296.455, 355.00,338.296, 355.00,381.00c0.00,36.944-30.056,67.00-67.00,67.00c-36.943,0.00-67.00-30.056-67.00-67.00c0.00-51.986-19.361-91.975-57.545-118.855 c-10.50-7.392-22.371-13.743-35.455-19.033L 128.00,288.00 L0.00,288.00 l0.00-320.00 l 128.00,0.00 l0.00,31.499 c 29.945-1.966, 44.484-9.461, 58.595-16.747 C 200.639-24.501, 215.161-32.00, 240.00-32.00l 160.00,0.00 c 26.51,0.00, 48.00,21.49, 48.00,48.00c0.00,6.249-1.207,12.213-3.38,17.688 C 465.005,39.231, 480.00,57.859, 480.00,80.00c0.00,8.90-2.432,17.23-6.654,24.376C 487.022,113.023, 496.00,127.542, 496.00,144.00z M 48.00,0.00 c-8.836,0.00-16.00,7.163-16.00,16.00s 7.164,16.00, 16.00,16.00s 16.00-7.163, 16.00-16.00S 56.836,0.00, 48.00,0.00z M 444.00,128.00l-28.00,0.00 l0.00-32.00 l 16.00,0.00 c 8.822,0.00, 16.00-7.178, 16.00-16.00 s-7.178-16.00-16.00-16.00l-32.00,0.00 l0.00-32.00 c 8.822,0.00, 16.00-7.178, 16.00-16.00s-7.178-16.00-16.00-16.00L 240.00,0.00 c-17.064,0.00-26.149,4.691-38.723,11.185 c-15.874,8.196-35.193,18.16-73.277,20.364L 128.00,202.66 c 21.468,7.214, 40.714,16.715, 57.329,28.412C 233.525,265.00, 259.00,316.844, 259.00,381.00 c0.00,15.991, 13.01,29.00, 29.00,29.00s 29.00-13.009, 29.00-29.00c0.00-42.83-6.207-84.706-18.48-125.00c-3.099-11.509-6.033-22.913-8.012-32.00l 0.234,0.00 L 432.00,224.00 c 8.822,0.00, 16.00-7.178, 16.00-16.00s-7.178-16.00-16.00-16.00l-16.00,0.00 l0.00-32.00 l 28.00,0.00 c 10.841,0.00, 20.00-7.327, 20.00-16.00S 454.841,128.00, 444.00,128.00z"  />
<glyph unicode="&#xe06d;" d="M 496.00,144.00c0.00,16.458-8.978,30.977-22.654,39.624C 477.568,190.77, 480.00,199.10, 480.00,208.00c0.00,26.51-21.49,48.00-48.00,48.00l-93.904,0.00 C 349.324,296.455, 355.00,338.296, 355.00,381.00c0.00,36.944-30.056,67.00-67.00,67.00c-36.943,0.00-67.00-30.056-67.00-67.00c0.00-51.986-19.361-91.975-57.545-118.855 c-10.50-7.392-22.371-13.743-35.455-19.033L 128.00,288.00 L0.00,288.00 l0.00-320.00 l 128.00,0.00 l0.00,31.499 c 29.945-1.966, 44.484-9.461, 58.595-16.747 C 200.639-24.501, 215.161-32.00, 240.00-32.00l 80.00,0.00 l 80.00,0.00 c 26.51,0.00, 48.00,21.49, 48.00,48.00c0.00,6.249-1.207,12.213-3.38,17.688 C 465.005,39.231, 480.00,57.859, 480.00,80.00c0.00,8.90-2.432,17.23-6.654,24.376C 487.022,113.023, 496.00,127.542, 496.00,144.00z M 336.00,224.00l 96.00,0.00 c 8.822,0.00, 16.00-7.178, 16.00-16.00s-7.178-16.00-16.00-16.00l-96.00,0.00 c-8.822,0.00-16.00,7.178-16.00,16.00S 327.178,224.00, 336.00,224.00z M 278.545,120.688 C 265.008,112.201, 256.00,97.156, 256.00,80.00c0.00-17.00, 8.846-31.925, 22.177-40.453C 274.251,32.589, 272.00,24.56, 272.00,16.00 c0.00-5.611, 0.973-10.994, 2.742-16.00L 240.00,0.00 c-17.064,0.00-26.149,4.691-38.723,11.185c-15.874,8.196-35.193,18.16-73.277,20.364L 128.00,202.66 c 21.468,7.214, 40.714,16.715, 57.329,28.412C 233.525,265.00, 259.00,316.844, 259.00,381.00c0.00,15.991, 13.01,29.00, 29.00,29.00s 29.00-13.009, 29.00-29.00 c0.00-42.83-6.207-84.706-18.48-125.00c-3.33-12.37-6.47-24.614-8.438-33.995c-1.271-4.17-1.98-8.582-2.061-13.147 c-0.015-0.301-0.021-0.59-0.021-0.855c0.00-8.90, 2.432-17.229, 6.654-24.376C 280.979,174.977, 272.00,160.458, 272.00,144.00 C 272.00,135.538, 274.381,127.592, 278.545,120.688z M 400.00,0.00l-80.00,0.00 c-8.822,0.00-16.00,7.178-16.00,16.00s 7.178,16.00, 16.00,16.00l 80.00,0.00 c 8.822,0.00, 16.00-7.178, 16.00-16.00 S 408.822,0.00, 400.00,0.00z M 432.00,64.00L 304.00,64.00 c-8.822,0.00-16.00,7.178-16.00,16.00s 7.178,16.00, 16.00,16.00l 128.00,0.00 c 8.822,0.00, 16.00-7.178, 16.00-16.00S 440.822,64.00, 432.00,64.00z M 444.00,128.00L 324.00,128.00 c-10.841,0.00-20.00,7.327-20.00,16.00s 9.159,16.00, 20.00,16.00l 120.00,0.00 c 10.841,0.00, 20.00-7.327, 20.00-16.00S 454.841,128.00, 444.00,128.00z M 64.00,16.00 c0.00-8.837-7.164-16.00-16.00-16.00s-16.00,7.163-16.00,16.00s 7.164,16.00, 16.00,16.00S 64.00,24.837, 64.00,16.00z"  />
<glyph unicode="&#xe06e;" d="M 16.00,272.00c0.00-16.458 8.978-30.977 22.654-39.624C 34.432,225.23, 32.00,216.90, 32.00,208.00c0.00-26.51 21.49-48.00 48.00-48.00l 93.904,0.00 C 162.676,119.545, 157.00,77.704, 157.00,35.00c0.00-36.944 30.056-67.00 67.00-67.00c 36.943,0.00 67.00,30.056 67.00,67.00c0.00,51.986 19.361,91.975 57.545,118.855 c 10.50,7.392 22.371,13.743 35.455,19.033L 384.00,128.00 L 512.00,128.00 l0.00,320.00 l -128.00,0.00 l0.00-31.499 c -29.945,1.966, -44.484,9.461, -58.595,16.747 C 311.361,440.501, 296.839,448.00, 272.00,448.00l -160.00,0.00 c -26.51,0.00, -48.00-21.49, -48.00-48.00c0.00-6.249 1.207-12.213 3.38-17.688 C 46.995,376.769, 32.00,358.141, 32.00,336.00c0.00-8.90 2.432-17.23 6.654-24.376C 24.978,302.977, 16.00,288.458, 16.00,272.00z M 464.00,416.00 c 8.836,0.00 16.00-7.163 16.00-16.00s -7.164-16.00, -16.00-16.00s -16.00,7.163, -16.00,16.00S 455.164,416.00, 464.00,416.00z M 68.00,288.00l 28.00,0.00 l0.00,32.00 l -16.00,0.00 c -8.822,0.00, -16.00,7.178, -16.00,16.00 s 7.178,16.00 16.00,16.00l 32.00,0.00 l0.00,32.00 c -8.822,0.00, -16.00,7.178, -16.00,16.00s 7.178,16.00 16.00,16.00L 272.00,416.00 c 17.064,0.00 26.149-4.691 38.723-11.185 c 15.874-8.196 35.193-18.16 73.277-20.364L 384.00,213.34 c -21.468-7.214, -40.714-16.715, -57.329-28.412C 278.475,151.00, 253.00,99.156, 253.00,35.00 c0.00-15.991, -13.01-29.00, -29.00-29.00s -29.00,13.009, -29.00,29.00c0.00,42.83 6.207,84.706 18.48,125.00c 3.099,11.509 6.033,22.913 8.012,32.00l -0.234,0.00 L 80.00,192.00 c -8.822,0.00, -16.00,7.178, -16.00,16.00s 7.178,16.00 16.00,16.00l 16.00,0.00 l0.00,32.00 l -28.00,0.00 c -10.841,0.00, -20.00,7.327, -20.00,16.00S 57.159,288.00, 68.00,288.00z"  />
<glyph unicode="&#xe06f;" d="M 16.00,272.00c0.00-16.458 8.978-30.977 22.654-39.624C 34.432,225.23, 32.00,216.90, 32.00,208.00c0.00-26.51 21.49-48.00 48.00-48.00l 93.904,0.00 C 162.676,119.545, 157.00,77.704, 157.00,35.00c0.00-36.944 30.056-67.00 67.00-67.00c 36.943,0.00 67.00,30.056 67.00,67.00c0.00,51.986 19.361,91.975 57.545,118.855 c 10.50,7.392 22.371,13.743 35.455,19.033L 384.00,128.00 L 512.00,128.00 l0.00,320.00 l -128.00,0.00 l0.00-31.499 c -29.945,1.966, -44.484,9.461, -58.595,16.747 C 311.361,440.501, 296.839,448.00, 272.00,448.00l -80.00,0.00 l -80.00,0.00 c -26.51,0.00, -48.00-21.49, -48.00-48.00c0.00-6.249 1.207-12.213 3.38-17.688 C 46.995,376.769, 32.00,358.141, 32.00,336.00c0.00-8.90 2.432-17.23 6.654-24.376C 24.978,302.977, 16.00,288.458, 16.00,272.00z M 176.00,192.00l -96.00,0.00 c -8.822,0.00, -16.00,7.178, -16.00,16.00s 7.178,16.00 16.00,16.00l 96.00,0.00 c 8.822,0.00 16.00-7.178 16.00-16.00S 184.822,192.00, 176.00,192.00z M 233.455,295.312 C 246.992,303.799, 256.00,318.844, 256.00,336.00c0.00,17.00, -8.846,31.925, -22.177,40.453C 237.749,383.411, 240.00,391.44, 240.00,400.00 c0.00,5.611, -0.973,10.994, -2.742,16.00L 272.00,416.00 c 17.064,0.00 26.149-4.691 38.723-11.185c 15.874-8.196 35.193-18.16 73.277-20.364L 384.00,213.34 c -21.468-7.214, -40.714-16.715, -57.329-28.412C 278.475,151.00, 253.00,99.156, 253.00,35.00c0.00-15.991, -13.01-29.00, -29.00-29.00s -29.00,13.009, -29.00,29.00 c0.00,42.83 6.207,84.706 18.48,125.00c 3.33,12.37 6.47,24.614 8.438,33.995c 1.271,4.17 1.98,8.582 2.061,13.147 c 0.015,0.301 0.021,0.59 0.021,0.855c0.00,8.90, -2.432,17.229, -6.654,24.376C 231.021,241.023, 240.00,255.542, 240.00,272.00 C 240.00,280.462, 237.619,288.408, 233.455,295.312z M 112.00,416.00l 80.00,0.00 c 8.822,0.00 16.00-7.178 16.00-16.00s -7.178-16.00, -16.00-16.00l -80.00,0.00 c -8.822,0.00, -16.00,7.178, -16.00,16.00 S 103.178,416.00, 112.00,416.00z M 80.00,352.00L 208.00,352.00 c 8.822,0.00 16.00-7.178 16.00-16.00s -7.178-16.00, -16.00-16.00l -128.00,0.00 c -8.822,0.00, -16.00,7.178, -16.00,16.00S 71.178,352.00, 80.00,352.00z M 68.00,288.00L 188.00,288.00 c 10.841,0.00 20.00-7.327 20.00-16.00s -9.159-16.00, -20.00-16.00l -120.00,0.00 c -10.841,0.00, -20.00,7.327, -20.00,16.00S 57.159,288.00, 68.00,288.00z M 448.00,400.00 c0.00,8.837 7.164,16.00 16.00,16.00s 16.00-7.163 16.00-16.00s -7.164-16.00, -16.00-16.00S 448.00,391.163, 448.00,400.00z"  />
<glyph unicode="&#xe070;" d="M 128.00,32.00 L 128.00-32.00 L 32.00,48.00 L 128.00,128.00 L 128.00,64.00 L 384.00,64.00 L 384.00,128.00 L 480.00,48.00 L 384.00-32.00 L 384.00,32.00 ZM 416.00,448.00 L 416.00,320.00 L 384.00,384.00 L 288.00,384.00 L 288.00,160.00 L 352.00,160.00 L 352.00,128.00 L 160.00,128.00 L 160.00,160.00 L 224.00,160.00 L 224.00,384.00 L 128.00,384.00 L 96.00,320.00 L 96.00,448.00 Z"  />
<glyph unicode="&#xe071;" d="M 448.00,96.00 L 512.00,96.00 L 432.00,0.00 L 352.00,96.00 L 416.00,96.00 L 416.00,352.00 L 352.00,352.00 L 432.00,448.00 L 512.00,352.00 L 448.00,352.00 ZM 320.00,448.00 L 320.00,320.00 L 288.00,384.00 L 192.00,384.00 L 192.00,32.00 L 256.00,32.00 L 256.00,0.00 L 64.00,0.00 L 64.00,32.00 L 128.00,32.00 L 128.00,384.00 L 32.00,384.00 L 0.00,320.00 L 0.00,448.00 Z"  />
<glyph unicode="&#xe072;" d="M 161.009,64.00l 28.80,96.00l 132.382,0.00 l 28.80-96.00l 56.816,0.00 L 311.809,384.00L 200.191,384.00 l-96.00-320.00L 161.009,64.00 z M 237.809,320.00l 36.382,0.00 l 28.80-96.00l-93.982,0.00 L 237.809,320.00z"  />
<glyph unicode="&#xe073;" d="M 256.00,480.00C 114.615,480.00,0.00,365.385,0.00,224.00s 114.615-256.00, 256.00-256.00s 256.00,114.615, 256.00,256.00S 397.385,480.00, 256.00,480.00z M 391.765,88.235 C 363.16,59.631, 327.117,41.174, 288.00,34.648L 288.00,128.00 l-64.00,0.00 l0.00-93.352 c-39.117,6.525-75.16,24.982-103.765,53.587 C 91.632,116.84, 73.174,152.883, 66.649,192.00L 160.00,192.00 l0.00,64.00 L 66.649,256.00 c 6.525,39.117, 24.983,75.16, 53.587,103.765 C 148.84,388.369, 184.883,406.826, 224.00,413.352L 224.00,320.00 l 64.00,0.00 L 288.00,413.352 c 39.117-6.525, 75.16-24.983, 103.765-53.587 c 28.604-28.604, 47.062-64.647, 53.587-103.765L 352.00,256.00 l0.00-64.00 l 93.352,0.00 C 438.826,152.883, 420.369,116.84, 391.765,88.235z"  />
<glyph unicode="&#xe074;" d="M 512.00,256.00l-50.462,0.00 C 447.718,345.12, 377.12,415.718, 288.00,429.538L 288.00,480.00 l-64.00,0.00 l0.00-50.462 C 134.88,415.718, 64.282,345.12, 50.462,256.00L0.00,256.00 l0.00-64.00 l 50.462,0.00 C 64.282,102.88, 134.88,32.282, 224.00,18.462L 224.00-32.00 l 64.00,0.00 l0.00,50.462 C 377.12,32.282, 447.718,102.88, 461.538,192.00L 512.00,192.00 L 512.00,256.00 z M 396.411,256.00 L 346.53,256.00 c-9.642,27.275-31.255,48.889-58.53,58.53l0.00,49.881 C 341.757,352.166, 384.166,309.756, 396.411,256.00z M 256.00,192.00 c-17.673,0.00-32.00,14.327-32.00,32.00c0.00,17.673, 14.327,32.00, 32.00,32.00c 17.673,0.00, 32.00-14.327, 32.00-32.00C 288.00,206.327, 273.673,192.00, 256.00,192.00z M 224.00,364.411 l0.00-49.881 c-27.275-9.641-48.889-31.255-58.53-58.53l-49.881,0.00 C 127.834,309.756, 170.244,352.166, 224.00,364.411z M 115.589,192.00l 49.881,0.00 c 9.641-27.275, 31.255-48.889, 58.53-58.53l0.00-49.881 C 170.244,95.834, 127.834,138.243, 115.589,192.00z M 288.00,83.589L 288.00,133.47 c 27.275,9.642, 48.889,31.255, 58.53,58.53l 49.881,0.00 C 384.166,138.243, 341.757,95.834, 288.00,83.589z"  />
</font>
</defs>
</svg>
